[ Сегодня идет свободное скачивание без начисления Download ]


Статистика раздачи
Нет
 
   
 
Top  
 
 
-Взгляд зимы / Cold Comes the Night (2013) BDRip-«Иногда бой твоей жизни происходит под покровом ночи»- Год выпуска: 2013
Производство: США / Sasquatch Films, Syncopated Films, Three Point Capital
Жанр: Триллер, Драма, Криминал
Перевод: Любительский (одноголосый закадровый) den904 + Любительский (одноголосый закадровый) Хихикающий доктор
Дата мировой премьеры: 20 сентября 2013
Режиссер: Це Чун
Продюсер: Скотт Холли, Минетт Луи
Актеры: Элис Ив, Брайан Крэнстон, Логан Маршалл-Грин, Урсула Паркер, Лео Фицпатрик, Эрин Каммингс, Робин Тейлор, Сара Соколович, Марселин Хьюго, Эсау Притчетт
Описание фильма:
Пытающийся справиться с трудностями владелец отеля и его дочь захвачены в заложники почти слепым профессиональным преступником, чтобы они были его глазами, когда он попытается вернуть свои деньги у грязного полицейского.

Продолжительность: 01:30:27
Качество видео: BDRip
Видеокодек: Xvid
Битрейт видео: ~1732 kbps
Размер кадра: 720x400
Аудио #1: 48 kHz, AC3 Dolby Digital, 2/0 (L,R) ch, 192 kbps - Любительский (одноголосый закадровый) den904
Аудио #2: 48 kHz, AC3 Dolby Digital, 2/0 (L,R) ch, 192 kbps - Любительский (одноголосый закадровый) Хихикающий доктор
Сэмпл: Скачать

MI

Общее
Полное имя : D:\Рипы\Cold.Comes.the.Night.2013.BDRip.avi
Формат : AVI
Формат/Информация : Audio Video Interleave
Размер файла : 1,35 Гбайт
Продолжительность : 1 ч. 30 м.
Общий поток : 2130 Кбит/сек
Название фильма : Cold.Comes.the.Night.2013.BDRip
Режиссёр : rip by maygli
Программа кодирования : VirtualDubModRus 1.5.10.2 (build 2542/release)
Правообладатель : ... (RG Rulya74)
Видео
Идентификатор : 0
Формат : MPEG-4 Visual
Профиль формата : Advanced Simple@L5
Параметр BVOP формата : 1
Параметр QPel формата : Нет
Параметр GMC формата : Без точки перехода
Параметр матрицы формата : Выборочная
Идентификатор кодека : XVID
Идентификатор кодека/Подсказка : XviD
Продолжительность : 1 ч. 30 м.
Битрейт : 1732 Кбит/сек
Ширина : 720 пикселей
Высота : 400 пикселей
Соотношение сторон : 16:9
Частота кадров : 23,976 кадра/сек
Цветовое пространство : YUV
Субдискретизация насыщенности : 4:2:0
Битовая глубина : 8 бит
Тип развёртки : Прогрессивная
Метод сжатия : С потерями
Бит/(Пиксели*Кадры) : 0.251
Размер потока : 1,09 Гбайт (81%)
Библиотека кодирования : XviD 65
Аудио #1
Идентификатор : 1
Формат : AC-3
Формат/Информация : Audio Coding 3
Расширение режима : CM (complete main)
Параметр Endianness формата : Big
Идентификатор кодека : 2000
Продолжительность : 1 ч. 30 м.
Вид битрейта : Постоянный
Битрейт : 192 Кбит/сек
Каналы : 2 канала
Расположение каналов : Front: L R
Частота : 48,0 КГц
Битовая глубина : 16 бит
Метод сжатия : С потерями
Размер потока : 124 Мбайт (9%)
Выравнивание : Разделение по промежуткам
Продолжительность промежутка : 42 мс. (1,00 видеокадр)
Время предзагрузки промежутка : 500 мс.
Заголовок : Любительский (одноголосый закадровый) den904
Аудио #2
Идентификатор : 2
Формат : AC-3
Формат/Информация : Audio Coding 3
Расширение режима : CM (complete main)
Параметр Endianness формата : Big
Идентификатор кодека : 2000
Продолжительность : 1 ч. 30 м.
Вид битрейта : Постоянный
Битрейт : 192 Кбит/сек
Каналы : 2 канала
Расположение каналов : Front: L R
Частота : 48,0 КГц
Битовая глубина : 16 бит
Метод сжатия : С потерями
Размер потока : 124 Мбайт (9%)
Выравнивание : Разделение по промежуткам
Продолжительность промежутка : 42 мс. (1,00 видеокадр)
Время предзагрузки промежутка : 500 мс.
Заголовок : Любительский (одноголосый закадровый) Хихикающий доктор
Скриншоты:
[th]http://img.torrentsclub.org/di/J7XQ/5528f0ee85b9bd1...78a2eeb.png[/th] [th]http://img.torrentsclub.org/di/SC1L/ad40bd7086c0616...e60a9d6.png[/th] [th]http://img.torrentsclub.org/di/3KG7/fef5c886e2a5a18...f820a8b.png[/th]
Время раздачи: с 10:00 до 22:30

[Цитировать]



Показать сообщения:    

Текущее время: 08-Дек 07:06

Часовой пояс: UTC + 3


Вы не можете начинать темы
Вы не можете отвечать на сообщения
Вы не можете редактировать свои сообщения
Вы не можете удалять свои сообщения
Вы не можете голосовать в опросах
Вы не можете прикреплять файлы к сообщениям
Вы не можете скачивать файлы

!ВНИМАНИЕ!
Сайт не предоставляет электронные версии произведений, а занимается лишь коллекционированием и каталогизацией ссылок, присылаемых и публикуемых на форуме нашими читателями. Если вы являетесь правообладателем какого-либо представленного материала и не желаете, чтобы ссылка на него находилась в нашем каталоге, свяжитесь с нами, и мы незамедлительно удалим ее. Файлы для обмена на трекере предоставлены пользователями сайта, и администрация не несет ответственности за их содержание. Просьба не заливать файлы, защищенные авторскими правами, а также файлы нелегального содержания!