[ Сегодня идет свободное скачивание без начисления Download ]


Статистика раздачи
Нет
 
   
 
Top  
 
 
-Первопроходец / Pioneer (2013) HDRip- Год выпуска: 2013
Производство: Норвегия, Германия, Швеция, Франция, Финляндия
Жанр: Триллер
Перевод: Одноголосый закадровый, любительский
Озвучка / Автор перевода: datynet
Субтитры: Отсутствуют
Дата мировой премьеры: 30 августа 2013
Режиссер: Эрик Шёлдбьерг
Актеры: Уэс Бентли, Стивен Лэнг, Аксель Хенни, Джонатан ЛаПалья, Стефани Сигман, Ёрген Лангхелле, Эни Даль Торп, Андре Эриксен, Эндре Хеллествейт, Арни Линдтнер Нэсс
Описание фильма:
Начало 1980-х гг. В Северном море обнаружены огромные запасы нефти и газа. В начале норвежского нефтяного бума власти намерены любой ценой доставлять на берег «черное» и «голубое золото» планеты по трубопроводу с глубины 500 метров, перед этим проводя разведку месторождения. Профессиональный дайвер Петтер, одержимый идеей достижения дна Норвежского моря, — полон решимости, силы и мужества, чтобы браться за самую опасную в мире работу и спуститься на эту глубину. Но неожиданная случайность меняет все. И теперь Петтер отправляется в опасное путешествие, в котором он теряет из вида того, кто дергает за ниточки в этой многомиллионной игре, постепенно понимая, что он оказывается на его пути и что его жизнь находится под угрозой.

Продолжительность: 01:51:14
Качество видео: HDRip
Видеокодек: Xvid
Битрейт видео: ~1555 Кбит/сек
Размер кадра: 720x304
Аудиокодек: MP3 2.0
Битрейт аудио: 192 Кбит/сек

MediaInfo:

Общее
Полное имя                       : D:\Первопроходец .2013.L1.HDRip.1400MB.avi
Формат                           : AVI
Формат/Информация                : Audio Video Interleave
Размер файла                     : 1,36 Гбайт
Продолжительность                : 1 ч. 51 м.
Общий поток                      : 1756 Кбит/сек
Программа кодирования            : VirtualDubMod 1.5.10.3 | [url=http://www.virtualdub-fr.org]www.virtualdub-fr.org[/url] || (build 2550/release)
Библиотека кодирования           : VirtualDubMod build 2550/release
Видео
Идентификатор                    : 0
Формат                           : MPEG-4 Visual
Профиль формата                  : Advanced Simple@L5
Параметр BVOP формата            : 2
Параметр QPel формата            : Нет
Параметр GMC формата             : Без точки перехода
Параметр матрицы формата         : Выборочная
Идентификатор кодека             : XVID
Идентификатор кодека/Подсказка   : XviD
Продолжительность                : 1 ч. 51 м.
Битрейт                          : 1555 Кбит/сек
Ширина                           : 720 пикселей
Высота                           : 304 пикселя
Соотношение сторон               : 2,35:1
Частота кадров                   : 24,000 кадра/сек
Цветовое пространство            : YUV
Субдискретизация насыщенности    : 4:2:0
Битовая глубина                  : 8 бит
Тип развёртки                    : Прогрессивная
Метод сжатия                     : С потерями
Бит/(Пиксели*Кадры)              : 0.296
Размер потока                    : 1,21 Гбайт (89%)
Библиотека кодирования           : XviD 1.2.1 (UTC 2008-12-04)
Аудио
Идентификатор                    : 1
Формат                           : MPEG Audio
Версия формата                   : Version 1
Профиль формата                  : Layer 3
Идентификатор кодека             : 55
Идентификатор кодека/Подсказка   : MP3
Продолжительность                : 1 ч. 51 м.
Вид битрейта                     : Постоянный
Битрейт                          : 192 Кбит/сек
Каналы                           : 2 канала
Частота                          : 44,1 КГц
Метод сжатия                     : С потерями
Размер потока                    : 153 Мбайт (11%)
Выравнивание                     : Разделение по промежуткам
Продолжительность промежутка     : 42  мс. (1,00 видеокадр)
Время предзагрузки промежутка    : 500  мс.
Скриншоты:
[th]http://img.torrentsclub.org/di/228W/0G22hLL.png[/th] [th]http://img.torrentsclub.org/di/3AT6/jDkXdXU.png[/th] [th]http://img.torrentsclub.org/di/AP17/kb4HhCq.png[/th]

Время раздачи: 16.30-23.00 до 5 скачавших

[Цитировать]



Показать сообщения:    

Текущее время: 10-Дек 10:01

Часовой пояс: UTC + 3


Вы не можете начинать темы
Вы не можете отвечать на сообщения
Вы не можете редактировать свои сообщения
Вы не можете удалять свои сообщения
Вы не можете голосовать в опросах
Вы не можете прикреплять файлы к сообщениям
Вы не можете скачивать файлы

!ВНИМАНИЕ!
Сайт не предоставляет электронные версии произведений, а занимается лишь коллекционированием и каталогизацией ссылок, присылаемых и публикуемых на форуме нашими читателями. Если вы являетесь правообладателем какого-либо представленного материала и не желаете, чтобы ссылка на него находилась в нашем каталоге, свяжитесь с нами, и мы незамедлительно удалим ее. Файлы для обмена на трекере предоставлены пользователями сайта, и администрация не несет ответственности за их содержание. Просьба не заливать файлы, защищенные авторскими правами, а также файлы нелегального содержания!