[ Сегодня идет свободное скачивание без начисления Download ]


Статистика раздачи
Нет
 
   
 
Top  
 
 
Непридуманное убийство / 4 серии из 4
Страна: Россия
Год выпуска: 2009
Производство: Атлантик, Продюсерская фирма Игоря Толстунова
Жанр: мелодрама, детектив
Продолжительность: 207 мин.
Субтитры: нет
Режиссер: Виктория Держицкая
В ролях: Светлана Иванова, Андрей Ильин, Александр Боев, Юлия Зимина, Олег Кассин, София Каштанова, Вячеслав Гугиев, Кирилл Игнатов,Александр Хващинский, Антон Аносов...
Описание: Героиня истории Наталья, скромная сотрудница турагентства, подбирает на улице потерявшегося ротвейлера. Придя по адресу, написанному на ошейнике собаки, Наталья не обнаруживает хозяев и, открыв дверь ключом, найденным в почтовом ящике, остается в квартире. Вскоре Наталья обнаруживает, что ниже этажом живет писатель Воронов, детективами которого она зачитывается.
Случайно найденный ротвейлер не только дарит встречу с любимым писателем, но и вовлекает ее в расследование убийства влиятельного банкира и исчезновения его возлюбленной Дарьи — хозяйки квартиры и собаки. Присутствие Натальи в квартире Дарьи путает следствию все карты. К тому же, незадачливая сыщица и сама запуталась и не знает, что ей делать дальше. Кто может помочь в такой ситуации? Конечно же, только любимый писатель Воронов…

Тип релиза: DVD9 R5
Контейнер: DVD Video
Видео: PAL 4:3 (720x576) ~4818 kbps, VBR
Аудио 1: 48 kHz, AC3, 6 ch, 320.00 kbps Constant
Аудио 2: 48 kHz, AC3, 2 ch, 192.00 kbps Constant
Меню: статичное
Доп. материалы: нет

DVDInfo

Title: Nepridumannoe.ubiystvo.2009.O.DVD9
Size: 7.74 Gb ( 8 119 680,00 KBytes ) - DVD-9
Enabled regions: 1, 2, 3, 4, 5, 6, 7, 8
VTS_01 :
Play Length: 03:27:26
Video: PAL 4:3 (720x576) VBR
Audio:
Russian, AC3, 3/2 (L,C,R,SL,SR)+LFE ch, 320 kbps, Delay 0 mSec
Russian, AC3, 2/0 (L,R) ch, 192 kbps, Delay 0 mSec

MediaInfo первого воба

Общее
Полное имя : Nepridumannoe.ubiystvo.2009.O.DVD9\VIDEO_TS\VTS_01_1.VOB
Формат : MPEG-PS
Размер файла : 1024 Мбайт
Продолжительность : 26 м.
Общий поток : 5319 Кбит/сек
Видео
Идентификатор : 224 (0xE0)
Формат : MPEG Video
Версия формата : Version 2
Профиль формата : Main@Main
Параметр BVOP формата : Да
Параметр матрицы формата : По умолчанию
Продолжительность : 26 м.
Вид битрейта : Переменный
Битрейт : 4701 Кбит/сек
Номинальный битрейт : 9000 Кбит/сек
Ширина : 720 пикс.
Высота : 576 пикс.
Соотношение сторон : 4:3
Частота кадров : 25,000 кадр/сек
Стандарт вещания : PAL
Цветовое пространство : YUV
Подвыборка цветности : 4:2:0
Битовая глубина : 8 бит
Тип развёртки : Чересстрочная
Порядок развёртки : Верхнее поле первое
Метод сжатия : С потерями
Бит/(Пиксели*Кадры) : 0.453
Размер потока : 905 Мбайт (88%)
Аудио #1
Идентификатор : 189 (0xBD)-128 (0x80)
Формат : AC-3
Формат/Информация : Audio Coding 3
Расширение режима : CM (complete main)
Режим смешивания : DVD-Video
Продолжительность : 26 м.
Вид битрейта : Постоянный
Битрейт : 320 Кбит/сек
Каналы : 6 каналов
Расположение каналов : Front: L C R, Side: L R, LFE
Частота : 48,0 КГц
Битовая глубина : 16 бит
Метод сжатия : С потерями
Размер потока : 61,6 Мбайт (6%)
Аудио #2
Идентификатор : 189 (0xBD)-129 (0x81)
Формат : AC-3
Формат/Информация : Audio Coding 3
Расширение режима : CM (complete main)
Режим смешивания : DVD-Video
Продолжительность : 26 м.
Вид битрейта : Постоянный
Битрейт : 192 Кбит/сек
Каналы : 2 канала
Расположение каналов : Front: L R
Частота : 48,0 КГц
Битовая глубина : 16 бит
Метод сжатия : С потерями
Размер потока : 37,0 Мбайт (4%)

Скриншоты



[Цитировать]



Показать сообщения:    

Текущее время: 10-Дек 17:39

Часовой пояс: UTC + 3


Вы не можете начинать темы
Вы не можете отвечать на сообщения
Вы не можете редактировать свои сообщения
Вы не можете удалять свои сообщения
Вы не можете голосовать в опросах
Вы не можете прикреплять файлы к сообщениям
Вы не можете скачивать файлы

!ВНИМАНИЕ!
Сайт не предоставляет электронные версии произведений, а занимается лишь коллекционированием и каталогизацией ссылок, присылаемых и публикуемых на форуме нашими читателями. Если вы являетесь правообладателем какого-либо представленного материала и не желаете, чтобы ссылка на него находилась в нашем каталоге, свяжитесь с нами, и мы незамедлительно удалим ее. Файлы для обмена на трекере предоставлены пользователями сайта, и администрация не несет ответственности за их содержание. Просьба не заливать файлы, защищенные авторскими правами, а также файлы нелегального содержания!