[ Сегодня идет свободное скачивание без начисления Download ]


Статистика раздачи
Нет
 
   
 
Top  
 
 
-12 лет рабства / 12 Years a Slave (2013) BDRemux
«The extraordinary true story of Solomon Northup»
- Год выпуска: 2013
Производство: США, Великобритания / New Regency Pictures
Жанр: Драма, биография, история
Язык: Русский, английский
Перевод: Дублированный [iTunes]
Субтитры: Вшитые отключаемые
Язык субтитров: Русский, английский
Режиссер: Стив МакКуин / Steve McQueen
Продюсер: Деде Гарднер, Энтони Катагас, Джереми Клейнер
Актеры: Чиветель Эджиофор, Майкл Фассбендер, Лупита Нионго, Сара Полсон, Бенедикт Камбербэтч, Брэд Питт, Пол Дано, Пол Джаматти, Элфри Вудард, Куавенжаней Уоллис
Описание фильма:
Соломон Нортап был женатым и образованным мужчиной, который жил и работал в Нью-Йорке, когда два человека однажды предложили ему привлекательную работу в Вашингтоне. По прибытии он был похищен, стал рабом и влачил жалкую жизнь, переходя от одного хозяина к другому.

Дата мировой премьеры: 30 августа 2013
Дата российской премьеры: 12 декабря 2013, «ЦП»
Рейтинг MPAA: R
Возраст: 16+
Продолжительность: 02:14:10
Качество видео: BDRemux
Видео: MPEG4_AVC/H.264, 1920x1080, ~28994 kbps, 23.976 fps
Аудио 1: AC3 5.1, 384 kbps, 48 kHz [Русский - дублированный]
Аудио 2: DTS-HD MA 5.1, 3880 kbps, 48 kHz [Английский - оригинал]

Отчёт MediaInfo

Полное имя : D:\12.Years.a.Slave.(2013).BDRemux.[1080p].mkv
Формат : Matroska
Версия формата : Version 2
Размер файла : 31,0 Гбайт
Продолжительность : 2 ч. 14 м.
Режим общего битрейта : Переменный
Общий поток : 33,1 Мбит/сек
Дата кодирования : UTC 2014-02-20 14:23:37
Программа кодирования : mkvmerge v6.7.0 ('Back to the Ground') 64bit built on Jan 8 2014 15:10:52
Библиотека кодирования : libebml v1.3.0 + libmatroska v1.4.1
Видео
Идентификатор : 1
Формат : AVC
Формат/Информация : Advanced Video Codec
Профиль формата : High@L4.1
Параметр CABAC формата : Да
Параметр ReFrames формата : 4 кадра
Идентификатор кодека : V_MPEG4/ISO/AVC
Продолжительность : 2 ч. 14 м.
Вид битрейта : Переменный
Битрейт : 30,5 Мбит/сек
Максимальный битрейт : 37,0 Мбит/сек
Ширина : 1920 пикселей
Высота : 1080 пикселей
Соотношение сторон : 16:9
Режим частоты кадров : Постоянный
Частота кадров : 23,976 кадра/сек
Цветовое пространство : YUV
Субдискретизация насыщенности : 4:2:0
Битовая глубина : 8 бит
Тип развёртки : Прогрессивная
Бит/(Пиксели*Кадры) : 0.613
Размер потока : 28,6 Гбайт (92%)
Default : Да
Forced : Нет
Аудио #1
Идентификатор : 2
Формат : AC-3
Формат/Информация : Audio Coding 3
Расширение режима : CM (complete main)
Параметр Endianness формата : Big
Идентификатор кодека : A_AC3
Продолжительность : 2 ч. 14 м.
Вид битрейта : Постоянный
Битрейт : 384 Кбит/сек
Каналы : 6 каналов
Расположение каналов : Front: L C R, Side: L R, LFE
Частота : 48,0 КГц
Битовая глубина : 16 бит
Метод сжатия : С потерями
Размер потока : 369 Мбайт (1%)
Язык : Russian
Default : Да
Forced : Нет
Аудио #2
Идентификатор : 3
Формат : DTS
Формат/Информация : Digital Theater Systems
Профиль формата : MA / Core
Идентификатор кодека : A_DTS
Продолжительность : 2 ч. 14 м.
Вид битрейта : Переменный
Битрейт : 1561 Кбит/сек / 1510 Кбит/сек
Каналы : 6 каналов
Расположение каналов : Front: L C R, Side: L R, LFE
Частота : 48,0 КГц
Битовая глубина : 24 бит
Метод сжатия : Без потерь / Lossy
Язык : English
Default : Нет
Forced : Нет
Текст #1
Идентификатор : 4
Формат : UTF-8
Идентификатор кодека : S_TEXT/UTF8
Идентификатор кодека/Информация : UTF-8 Plain Text
Язык : Russian
Default : Нет
Forced : Нет
Текст #2
Идентификатор : 5
Формат : UTF-8
Идентификатор кодека : S_TEXT/UTF8
Идентификатор кодека/Информация : UTF-8 Plain Text
Язык : English
Default : Нет
Forced : Нет
Меню
00:00:00.000 : en:00:00:00.000
00:06:02.862 : en:00:06:02.862
00:10:13.530 : en:00:10:13.530
00:12:58.778 : en:00:12:58.778
00:16:24.650 : en:00:16:24.650
00:19:18.866 : en:00:19:18.866
00:25:01.709 : en:00:25:01.709
00:27:48.458 : en:00:27:48.458
00:32:07.968 : en:00:32:07.968
00:36:07.874 : en:00:36:07.874
00:39:39.127 : en:00:39:39.127
00:45:16.714 : en:00:45:16.714
00:47:36.145 : en:00:47:36.145
00:52:26.977 : en:00:52:26.977
00:54:34.188 : en:00:54:34.188
00:59:34.029 : en:00:59:34.029
01:01:47.704 : en:01:01:47.704
01:06:04.544 : en:01:06:04.544
01:09:55.691 : en:01:09:55.691
01:12:47.989 : en:01:12:47.989
01:15:27.690 : en:01:15:27.690
01:18:31.874 : en:01:18:31.874
01:21:08.489 : en:01:21:08.489
01:23:46.688 : en:01:23:46.688
01:26:25.972 : en:01:26:25.972
01:28:18.877 : en:01:28:18.877
01:31:22.519 : en:01:31:22.519
01:34:10.144 : en:01:34:10.144
01:38:14.013 : en:01:38:14.013
01:41:50.313 : en:01:41:50.313
01:45:18.896 : en:01:45:18.896
01:53:09.908 : en:01:53:09.908
01:54:46.505 : en:01:54:46.505
02:00:22.215 : en:02:00:22.215
02:04:07.398 : en:02:04:07.398
02:07:25.721 : en:02:07:25.721
Скриншоты:

[Цитировать]



Показать сообщения:    

Текущее время: 11-Дек 07:11

Часовой пояс: UTC + 3


Вы не можете начинать темы
Вы не можете отвечать на сообщения
Вы не можете редактировать свои сообщения
Вы не можете удалять свои сообщения
Вы не можете голосовать в опросах
Вы не можете прикреплять файлы к сообщениям
Вы не можете скачивать файлы

!ВНИМАНИЕ!
Сайт не предоставляет электронные версии произведений, а занимается лишь коллекционированием и каталогизацией ссылок, присылаемых и публикуемых на форуме нашими читателями. Если вы являетесь правообладателем какого-либо представленного материала и не желаете, чтобы ссылка на него находилась в нашем каталоге, свяжитесь с нами, и мы незамедлительно удалим ее. Файлы для обмена на трекере предоставлены пользователями сайта, и администрация не несет ответственности за их содержание. Просьба не заливать файлы, защищенные авторскими правами, а также файлы нелегального содержания!