[ Сегодня идет свободное скачивание без начисления Download ]


Статистика раздачи
Нет
 
   
 
Top  
 
 
-Starперцы / Last Vegas (2013) BDRip [1080p]- Год выпуска: 2013
Производство: США, CBS Films, Gidden Media, Good Universe, Outlaw Sinema
Жанр: Комедия, Драма
Перевод: Дублированный [iTunes]
Субтитры: Вшитые отключаемые
Язык субтитров: Английский
Дата мировой премьеры: 31 октября 2013
Дата российской премьеры: 14 ноября 2013, «Централ Партнершип»
Режиссер: Джон Тёртелтауб
Продюсер: Эми Баэр, Джозеф Дрэйк, Лоуренс Марк
Актеры: Майкл Дуглас, Роберт Де Ниро, Морган Фриман, Кевин Клайн, Мэри Стинберген, Джерри Феррара, Романи Малко, Роджер Барт, Джоанна Глисон, Майкл Или
Описание фильма:
Билли, Пэдди, Арчи и Сэм дружат больше полувека. И когда убежденный холостяк Билли наконец-то делает предложение своей юной подружке, великолепная четверка отправляется в Лас-Вегас, чтобы скинуть с себя груз прожитого и зажечь как в последний раз. Великовозрастные гуляки и не подозревают, как за десятилетия эволюционировал Город Грехов…

Продолжительность: 01:44:59
Качество видео: BDRip [1080p]
Видеокодек: MPEG-4 AVC/H.264
Битрейт видео: ~11400 kb/s
Размер кадра: 1920x800
Аудио #1: Русский: AC-3, 48.0 KHz, 6 ch, 384 Kbps, CBR
Аудио #2: Английский: DTS, 48.0 KHz, 6 ch, 1510 Kbps, CBR
Сэмпл: Скачать

MediaInfo:

Общее
Уникальный идентификатор : 200400668782926973677545178027782151173 (0x96C3C3CFBA59F1F4899DCFA7FCE19C05)
Полное имя : E:\Фильмы\StarPertsy.2013.D.BDRip.1080p.mkv
Формат : Matroska
Версия формата : Version 2
Размер файла : 9,78 Гбайт
Продолжительность : 1 ч. 45 м.
Общий поток : 13,2 Мбит/сек
Название фильма : CMEGRoup
Дата кодирования : UTC 2014-02-20 07:33:57
Программа кодирования : mkvmerge v6.7.0 ('Back to the Ground') 64bit built on Jan 8 2014 15:10:52
Библиотека кодирования : libebml v1.3.0 + libmatroska v1.4.1
Видео
Идентификатор : 1
Формат : AVC
Формат/Информация : Advanced Video Codec
Профиль формата : High@L4.1
Параметр CABAC формата : Да
Параметр ReFrames формата : 5 кадров
Идентификатор кодека : V_MPEG4/ISO/AVC
Продолжительность : 1 ч. 45 м.
Битрейт : 11,4 Мбит/сек
Ширина : 1920 пикселей
Высота : 800 пикселей
Соотношение сторон : 2,40:1
Режим частоты кадров : Постоянный
Частота кадров : 23,976 кадра/сек
Цветовое пространство : YUV
Субдискретизация насыщенности : 4:2:0
Битовая глубина : 8 бит
Тип развёртки : Прогрессивная
Бит/(Пиксели*Кадры) : 0.310
Размер потока : 8,18 Гбайт (84%)
Заголовок : hahay0yo@CHD
Библиотека кодирования : x264 core 138 r2356 a1d3d17
Настройки программы : cabac=1 / ref=5 / deblock=1:-3:-3 / analyse=0x3:0x113 / me=umh / subme=10 / psy=1 / psy_rd=1.00:0.05 / mixed_ref=1 / me_range=32 / chroma_me=1 / trellis=2 / 8x8dct=1 / cqm=0 / deadzone=21,11 / fast_pskip=0 / chroma_qp_offset=-2 / threads=18 / lookahead_threads=1 / sliced_threads=0 / nr=0 / decimate=1 / interlaced=0 / bluray_compat=0 / constrained_intra=0 / bframes=6 / b_pyramid=2 / b_adapt=2 / b_bias=0 / direct=3 / weightb=1 / open_gop=0 / weightp=2 / keyint=250 / keyint_min=23 / scenecut=40 / intra_refresh=0 / rc=2pass / mbtree=0 / bitrate=11430 / ratetol=1.0 / qcomp=0.70 / qpmin=0 / qpmax=69 / qpstep=4 / cplxblur=20.0 / qblur=0.5 / ip_ratio=1.40 / pb_ratio=1.30 / aq=2:1.00
Язык : English
Default : Да
Forced : Нет
Аудио #1
Идентификатор : 2
Формат : AC-3
Формат/Информация : Audio Coding 3
Расширение режима : CM (complete main)
Параметр Endianness формата : Big
Идентификатор кодека : A_AC3
Продолжительность : 1 ч. 45 м.
Вид битрейта : Постоянный
Битрейт : 384 Кбит/сек
Каналы : 6 каналов
Расположение каналов : Front: L C R, Side: L R, LFE
Частота : 48,0 КГц
Битовая глубина : 16 бит
Метод сжатия : С потерями
Размер потока : 291 Мбайт (3%)
Язык : Russian
Default : Да
Forced : Нет
Аудио #2
Идентификатор : 3
Формат : DTS
Формат/Информация : Digital Theater Systems
Режим : 16
Параметр Endianness формата : Big
Идентификатор кодека : A_DTS
Продолжительность : 1 ч. 45 м.
Вид битрейта : Постоянный
Битрейт : 1509 Кбит/сек
Каналы : 6 каналов
Расположение каналов : Front: L C R, Side: L R, LFE
Частота : 48,0 КГц
Битовая глубина : 24 бит
Метод сжатия : С потерями
Размер потока : 1,12 Гбайт (11%)
Заголовок : English DTS 5.1 1509Kbps
Язык : English
Default : Нет
Forced : Нет
Текст #1
Идентификатор : 4
Формат : UTF-8
Идентификатор кодека : S_TEXT/UTF8
Идентификатор кодека/Информация : UTF-8 Plain Text
Заголовок : Full
Язык : English
Default : Нет
Forced : Нет
Текст #2
Идентификатор : 5
Формат : UTF-8
Идентификатор кодека : S_TEXT/UTF8
Идентификатор кодека/Информация : UTF-8 Plain Text
Заголовок : SDH
Язык : English
Default : Нет
Forced : Нет
Текст #3
Идентификатор : 6
Формат : UTF-8
Идентификатор кодека : S_TEXT/UTF8
Идентификатор кодека/Информация : UTF-8 Plain Text
Заголовок : SDH-Colored
Язык : English
Default : Нет
Forced : Нет
Текст #4
Идентификатор : 7
Формат : UTF-8
Идентификатор кодека : S_TEXT/UTF8
Идентификатор кодека/Информация : UTF-8 Plain Text
Заголовок : Comments
Язык : English
Default : Нет
Forced : Нет
Меню
00:00:00.000 : en:(01)00:00:00:000
00:03:03.391 : en:(02)00:03:03:391
00:10:25.458 : en:(03)00:10:25:458
00:20:38.862 : en:(04)00:20:38:862
00:29:31.102 : en:(05)00:29:31:102
00:41:30.154 : en:(06)00:41:30:154
00:49:40.060 : en:(07)00:49:40:060
00:57:18.977 : en:(08)00:57:18:977
01:05:28.633 : en:(09)01:05:28:633
01:10:08.078 : en:(10)01:10:08:078
01:14:33.302 : en:(11)01:14:33:302
01:18:06.682 : en:(12)01:18:06:682
01:21:23.378 : en:(13)01:21:23:378
01:27:03.134 : en:(14)01:27:03:134
01:34:43.386 : en:(15)01:34:43:386
01:40:51.045 : en:(16)01:40:51:045
Скриншоты:

[Цитировать]



Показать сообщения:    

Текущее время: 24-Янв 18:20

Часовой пояс: UTC + 3


Вы не можете начинать темы
Вы не можете отвечать на сообщения
Вы не можете редактировать свои сообщения
Вы не можете удалять свои сообщения
Вы не можете голосовать в опросах
Вы не можете прикреплять файлы к сообщениям
Вы не можете скачивать файлы

!ВНИМАНИЕ!
Сайт не предоставляет электронные версии произведений, а занимается лишь коллекционированием и каталогизацией ссылок, присылаемых и публикуемых на форуме нашими читателями. Если вы являетесь правообладателем какого-либо представленного материала и не желаете, чтобы ссылка на него находилась в нашем каталоге, свяжитесь с нами, и мы незамедлительно удалим ее. Файлы для обмена на трекере предоставлены пользователями сайта, и администрация не несет ответственности за их содержание. Просьба не заливать файлы, защищенные авторскими правами, а также файлы нелегального содержания!