[ Сегодня идет свободное скачивание без начисления Download ]


Статистика раздачи
Нет
 
   
 
Top  
 
 
-12 лет рабства / 12 Years a Slave (2013) BDRip- Год выпуска: 2013
Производство: США, Великобритания / Regency Enterprises, River Road Entertainment, Plan B Entertainment
Жанр: Драма, Биография, История
Перевод: Дублированный (iTunes)
Субтитры: Вшитые отключаемые
Язык субтитров: Русский, Английский
Дата мировой премьеры: 30 августа 2013
Дата российской премьеры: 12 декабря 2013, «Централ Партнершип»
Режиссер: Стив МакКуин
Продюсер: Деде Гарднер, Энтони Катагас, Джереми Клейнер
Актеры: Чиветель Эджиофор, Майкл Фассбендер, Бенедикт Камбербэтч, Пол Дано, Пол Джаматти, Лупита Нионго, Сара Полсон, Брэд Питт, Элфри Вудард, Куавенжаней Уоллис
Описание фильма:
Соломон Нортап был женатым и образованным мужчиной, который жил и работал в Нью-Йорке, когда два человека однажды предложили ему привлекательную работу в Вашингтоне. По прибытии он был похищен, стал рабом и влачил жалкую жизнь, переходя от одного хозяина к другому.

Продолжительность: 02:14:10
Качество видео: BDRip [profile-LQ]
Видеокодек: MPEG-4 AVC/H.264
Битрейт видео: ~10200 Kbps
Размер кадра: 1920 x 800
Аудио 1: Русский, AC3 5.1, 384 kbps, 48 kHz
Аудио 2: Английский, DTS 5.1, 1509 kbps, 48 kHz
Сэмпл: Скачать

MediaInfo:

Общее
Уникальный идентификатор : 197679941567533329980543618800380782194 (0x94B7C59A624EF00BA22C23FC655BA672)
Полное имя : D:\Films\12.Years.A.Slave.2013.1080p.BDRip.mkv
Формат : Matroska
Версия формата : Version 2
Размер файла : 11,3 Гбайт
Продолжительность : 2 ч. 14 м.
Общий поток : 12,0 Мбит/сек
Дата кодирования : UTC 2014-02-20 05:54:05
Программа кодирования : mkvmerge v5.2.0 ('I can't explain') built on Dec 18 2011 18:12:03
Библиотека кодирования : libebml v1.2.3 + libmatroska v1.3.0
Видео
Идентификатор : 1
Формат : AVC
Формат/Информация : Advanced Video Codec
Профиль формата : [email protected]
Параметр CABAC формата : Да
Параметр ReFrames формата : 5 кадров
Идентификатор кодека : V_MPEG4/ISO/AVC
Продолжительность : 2 ч. 14 м.
Битрейт : 10,2 Мбит/сек
Ширина : 1920 пикселей
Высота : 800 пикселей
Соотношение сторон : 2,40:1
Режим частоты кадров : Постоянный
Частота кадров : 23,976 кадра/сек
Цветовое пространство : YUV
Субдискретизация насыщенности : 4:2:0
Битовая глубина : 8 бит
Тип развёртки : Прогрессивная
Бит/(Пиксели*Кадры) : 0.276
Размер потока : 9,29 Гбайт (82%)
Библиотека кодирования : x264 core 140 r2377 1ca7bb9
Настройки программы : cabac=1 / ref=5 / deblock=1:0:0 / analyse=0x3:0x133 / me=umh / subme=7 / psy=1 / psy_rd=1.00:0.00 / mixed_ref=1 / me_range=16 / chroma_me=1 / trellis=1 / 8x8dct=1 / cqm=0 / deadzone=21,11 / fast_pskip=1 / chroma_qp_offset=-2 / threads=12 / lookahead_threads=2 / sliced_threads=0 / nr=0 / decimate=1 / interlaced=0 / bluray_compat=0 / constrained_intra=0 / bframes=3 / b_pyramid=2 / b_adapt=2 / b_bias=0 / direct=1 / weightb=1 / open_gop=0 / weightp=2 / keyint=250 / keyint_min=23 / scenecut=40 / intra_refresh=0 / rc_lookahead=50 / rc=2pass / mbtree=1 / bitrate=10155 / ratetol=1.0 / qcomp=0.60 / qpmin=0 / qpmax=69 / qpstep=4 / cplxblur=20.0 / qblur=0.5 / ip_ratio=1.40 / aq=1:1.00
Язык : English
Default : Да
Forced : Нет
Аудио #1
Идентификатор : 2
Формат : AC-3
Формат/Информация : Audio Coding 3
Расширение режима : CM (complete main)
Параметр Endianness формата : Big
Идентификатор кодека : A_AC3
Продолжительность : 2 ч. 14 м.
Вид битрейта : Постоянный
Битрейт : 384 Кбит/сек
Каналы : 6 каналов
Расположение каналов : Front: L C R, Side: L R, LFE
Частота : 48,0 КГц
Битовая глубина : 16 бит
Метод сжатия : С потерями
Размер потока : 369 Мбайт (3%)
Заголовок : DUB (iTunes)
Язык : Russian
Default : Да
Forced : Нет
Аудио #2
Идентификатор : 3
Формат : DTS
Формат/Информация : Digital Theater Systems
Режим : 16
Параметр Endianness формата : Big
Идентификатор кодека : A_DTS
Продолжительность : 2 ч. 14 м.
Вид битрейта : Постоянный
Битрейт : 1509 Кбит/сек
Каналы : 6 каналов
Расположение каналов : Front: L C R, Side: L R, LFE
Частота : 48,0 КГц
Битовая глубина : 24 бит
Метод сжатия : С потерями
Размер потока : 1,41 Гбайт (13%)
Язык : English
Default : Нет
Forced : Нет
Текст #1
Идентификатор : 4
Формат : UTF-8
Идентификатор кодека : S_TEXT/UTF8
Идентификатор кодека/Информация : UTF-8 Plain Text
Язык : Russian
Default : Нет
Forced : Нет
Текст #2
Идентификатор : 5
Формат : UTF-8
Идентификатор кодека : S_TEXT/UTF8
Идентификатор кодека/Информация : UTF-8 Plain Text
Язык : English
Default : Нет
Forced : Нет
Текст #3
Идентификатор : 6
Формат : UTF-8
Идентификатор кодека : S_TEXT/UTF8
Идентификатор кодека/Информация : UTF-8 Plain Text
Заголовок : SDH
Язык : English
Default : Нет
Forced : Нет
Меню
00:00:00.000 : en:00:00:00.000
00:06:02.862 : en:00:06:02.862
00:10:13.530 : en:00:10:13.530
00:12:58.778 : en:00:12:58.778
00:16:24.650 : en:00:16:24.650
00:19:18.866 : en:00:19:18.866
00:25:01.709 : en:00:25:01.709
00:27:48.458 : en:00:27:48.458
00:32:07.968 : en:00:32:07.968
00:36:07.874 : en:00:36:07.874
00:39:39.127 : en:00:39:39.127
00:45:16.714 : en:00:45:16.714
00:47:36.145 : en:00:47:36.145
00:52:26.977 : en:00:52:26.977
00:54:34.188 : en:00:54:34.188
00:59:34.029 : en:00:59:34.029
01:01:47.704 : en:01:01:47.704
01:06:04.544 : en:01:06:04.544
01:09:55.691 : en:01:09:55.691
01:12:47.989 : en:01:12:47.989
01:15:27.690 : en:01:15:27.690
01:18:31.874 : en:01:18:31.874
01:21:08.489 : en:01:21:08.489
01:23:46.688 : en:01:23:46.688
01:26:25.972 : en:01:26:25.972
01:28:18.877 : en:01:28:18.877
01:31:22.519 : en:01:31:22.519
01:34:10.144 : en:01:34:10.144
01:38:14.013 : en:01:38:14.013
01:41:50.313 : en:01:41:50.313
01:45:18.896 : en:01:45:18.896
01:53:09.908 : en:01:53:09.908
01:54:46.505 : en:01:54:46.505
02:00:22.215 : en:02:00:22.215
02:04:07.398 : en:02:04:07.398
02:07:25.721 : en:02:07:25.721
-Скриншоты:

[Цитировать]



Показать сообщения:    

Текущее время: 05-Дек 03:31

Часовой пояс: UTC + 3


Вы не можете начинать темы
Вы не можете отвечать на сообщения
Вы не можете редактировать свои сообщения
Вы не можете удалять свои сообщения
Вы не можете голосовать в опросах
Вы не можете прикреплять файлы к сообщениям
Вы не можете скачивать файлы

!ВНИМАНИЕ!
Сайт не предоставляет электронные версии произведений, а занимается лишь коллекционированием и каталогизацией ссылок, присылаемых и публикуемых на форуме нашими читателями. Если вы являетесь правообладателем какого-либо представленного материала и не желаете, чтобы ссылка на него находилась в нашем каталоге, свяжитесь с нами, и мы незамедлительно удалим ее. Файлы для обмена на трекере предоставлены пользователями сайта, и администрация не несет ответственности за их содержание. Просьба не заливать файлы, защищенные авторскими правами, а также файлы нелегального содержания!