[ Сегодня идет свободное скачивание без начисления Download ]


Статистика раздачи
Нет
 
   
 
Top  
 
 
-Новые хакеры / The new hackers (2011) SATRip [H.264]- Русское название: Новые хакеры
Оригинальное название: The new hackers
Режиссер / Телекомпания: Стефан Жирард / 24_DOC
Год выпуска: 2011
Жанр: Документальный, Телепередача
Описание:
Свежее кино о свежем поколении, которое выбирает взлом. Первокурсники, школьники и просто двоечники-недоучки легко обходят сложные системы защиты и делают закрытую информацию всеобщим достоянием. Для одних это игра, для других способ в 17 лет зарабатывать десятки тысяч, для третьих, например, участников знаменитого движения «Анонимные» — некая форма общественного контроля. Съемочная группа внедряется в хакерскую среду и узнает небезынтересные вещи о том, чем они руководствуются, как организуются и что о себе думают..
Продолжительность: 00:53:31
Перевод: Одноголосый закадровый, профессиональный
Видеокодек: MPEG-4 AVC/H.264
Битрейт видео: ~1530 Kbps
Размер кадра: 704х432
Качество видео: SATRip
Аудиокодек: AC3 2.0
Битрейт аудио: 192 Kbps
Скриншоты:

Время раздачи: c 15:00 до 23:00, но возможно и 24/7

Отчёт МедиаИнфо:

Общее
Уникальный идентификатор : 241139138627304523344357167214437863023 (0xB569B572E873367295634A77153C0E6F)
Полное имя : E:\VIDEO\DOCUM\Новые Хакеры.mkv
Формат : Matroska
Версия формата : Version 2
Размер файла : 659 Мбайт
Продолжительность : 53 м.
Общий поток : 1723 Кбит/сек
Дата кодирования : UTC 2011-12-26 15:48:18
Программа кодирования : mkvmerge v5.0.1 ('Es ist Sommer') built on Oct 30 2011 21:53:49
Библиотека кодирования : libebml v1.2.2 + libmatroska v1.3.0
Видео
Идентификатор : 1
Формат : AVC
Формат/Информация : Advanced Video Codec
Профиль формата : High@L3.1
Параметр CABAC формата : Да
Параметр ReFrames формата : 8 кадров
Идентификатор кодека : V_MPEG4/ISO/AVC
Продолжительность : 53 м.
Битрейт : 1497 Кбит/сек
Ширина : 704 пикселя
Высота : 432 пикселя
Соотношение сторон : 1,630
Частота кадров : 25,000 кадров/сек
Цветовое пространство : YUV
Субдискретизация насыщенности : 4:2:0
Битовая глубина : 8 бит
Тип развёртки : Прогрессивная
Бит/(Пиксели*Кадры) : 0.197
Размер потока : 573 Мбайт (87%)
Библиотека кодирования : x264 core 119 r2106 07efeb4
Настройки программы : cabac=1 / ref=8 / deblock=1:-1:-1 / analyse=0x3:0x113 / me=umh / subme=7 / psy=1 / psy_rd=1.00:0.10 / mixed_ref=1 / me_range=16 / chroma_me=1 / trellis=2 / 8x8dct=1 / cqm=0 / deadzone=21,11 / fast_pskip=0 / chroma_qp_offset=-3 / threads=12 / sliced_threads=0 / nr=0 / decimate=1 / interlaced=0 / bluray_compat=0 / constrained_intra=0 / bframes=4 / b_pyramid=2 / b_adapt=2 / b_bias=0 / direct=3 / weightb=1 / open_gop=0 / weightp=2 / keyint=250 / keyint_min=25 / scenecut=40 / intra_refresh=0 / rc_lookahead=50 / rc=crf / mbtree=1 / crf=18.0 / qcomp=0.60 / qpmin=0 / qpmax=69 / qpstep=4 / vbv_maxrate=17500 / vbv_bufsize=14000 / crf_max=0.0 / nal_hrd=none / ip_ratio=1.40 / aq=1:1.00
Default : Да
Forced : Нет
Аудио
Идентификатор : 2
Формат : AC-3
Формат/Информация : Audio Coding 3
Расширение режима : CM (complete main)
Идентификатор кодека : A_AC3
Продолжительность : 53 м.
Вид битрейта : Постоянный
Битрейт : 192 Кбит/сек
Каналы : 2 канала
Расположение каналов : Front: L R
Частота : 48,0 КГц
Битовая глубина : 16 бит
Метод сжатия : С потерями
Размер потока : 73,5 Мбайт (11%)
Default : Да
Forced : Нет

[Цитировать]



Показать сообщения:    

Текущее время: 08-Дек 12:55

Часовой пояс: UTC + 3


Вы не можете начинать темы
Вы не можете отвечать на сообщения
Вы не можете редактировать свои сообщения
Вы не можете удалять свои сообщения
Вы не можете голосовать в опросах
Вы не можете прикреплять файлы к сообщениям
Вы не можете скачивать файлы

!ВНИМАНИЕ!
Сайт не предоставляет электронные версии произведений, а занимается лишь коллекционированием и каталогизацией ссылок, присылаемых и публикуемых на форуме нашими читателями. Если вы являетесь правообладателем какого-либо представленного материала и не желаете, чтобы ссылка на него находилась в нашем каталоге, свяжитесь с нами, и мы незамедлительно удалим ее. Файлы для обмена на трекере предоставлены пользователями сайта, и администрация не несет ответственности за их содержание. Просьба не заливать файлы, защищенные авторскими правами, а также файлы нелегального содержания!