[ Today is free to download without increasing Download ]

DL-List and Torrent activity
-Дворецкий / The Butler (2013) HDRip«One quiet voice can ignite a revolution»- Год выпуска: 2013
Производство: США, Follow Through Productions, Salamander Pictures
Жанр: Драма, Биография
Перевод: Двуголосый закадровый, любительский
Субтитры: Отсутствуют
Дата мировой премьеры: 5 августа 2013 (США, Нью-Йорк)
Режиссер: Ли Дэниелс
Продюсер: Ли Дэниелс, Кассиан Элвис, Бадди Патрик
Актеры: Форест Уитакер, Опра Уинфри, Джон Кьюсак, Джейн Фонда, Терренс Ховард, Кьюба Гудинг мл., Ленни Кравиц, Дэвид Ойелоуо, Ванесса Редгрейв, Алан Рикман
Описание фильма:
В фильме, основанном на статье из Washington Post, рассказывается о дворецком Юджине Аллене, служившем в Белом Доме под началом восьми разных президентов.

Продолжительность: 02:12:05
Качество видео: HDRip
Видеокодек: Xvid
Битрейт видео: ~1963 Kbit/s
Размер кадра: 720 x 384
Аудиокодек: AC3 5.1
Битрейт аудио: 384 Kbit/s


Complete name                            : E:\Фильмы\Дворецкий.2013.avi
Format                                   : AVI
Format/Info                              : Audio Video Interleave
Format profile                           : OpenDML
File size                                : 2.18 GiB
Duration                                 : 2h 12mn
Overall bit rate                         : 2 359 Kbps
Writing application                      : VirtualDubMod (build 2550/release)
Writing library                          : VirtualDubMod build 2550/release
ID                                       : 0
Format                                   : MPEG-4 Visual
Format profile                           : Advanced Simple@L5
Format settings, BVOP                    : 2
Format settings, QPel                    : No
Format settings, GMC                     : No warppoints
Format settings, Matrix                  : Custom
Codec ID                                 : XVID
Codec ID/Hint                            : XviD
Duration                                 : 2h 12mn
Bit rate                                 : 1 963 Kbps
Width                                    : 720 pixels
Height                                   : 384 pixels
Display aspect ratio                     : 1.85:1
Frame rate                               : 23.976 fps
Color space                              : YUV
Chroma subsampling                       : 4:2:0
Bit depth                                : 8 bits
Scan type                                : Progressive
Compression mode                         : Lossy
Bits/(Pixel*Frame)                       : 0.296
Stream size                              : 1.81 GiB (83%)
Writing library                          : XviD 64
ID                                       : 1
Format                                   : AC-3
Format/Info                              : Audio Coding 3
Mode extension                           : CM (complete main)
Format settings, Endianness              : Big
Codec ID                                 : 2000
Duration                                 : 2h 12mn
Bit rate mode                            : Constant
Bit rate                                 : 384 Kbps
Channel(s)                               : 6 channels
Channel positions                        : Front: L C R, Side: L R, LFE
Sampling rate                            : 48.0 KHz
Bit depth                                : 16 bits
Compression mode                         : Lossy
Stream size                              : 363 MiB (16%)
Alignment                                : Split accross interleaves
Interleave, duration                     : 42 ms (1.00 video frame)
Interleave, preload duration             : 500 ms
[th]http://img.torrentsclub.org/di/SJWY/44f31b2dfae4.jpg[/th] [th]http://img.torrentsclub.org/di/4I57/b08d7a1ce44b.jpg[/th] [th]http://img.torrentsclub.org/di/LJ9B/c42a0e417417.jpg[/th]
Время раздачи: Круглосуточно (До 5-ти скачавших)


Display posts:    

Current time is: 24-Oct 04:41

All times are UTC + 3

You cannot post new topics in this forum
You cannot reply to topics in this forum
You cannot edit your posts in this forum
You cannot delete your posts in this forum
You cannot vote in polls in this forum
You cannot attach files in this forum
You cannot download files in this forum

The site does not give electronic versions of products, and is engaged only in a collecting and cataloguing of the references sent and published at a forum by our readers. If you are the legal owner of any submitted material and do not wish that the reference to it was in our catalogue, contact us and we shall immediately remove her. Files for an exchange on tracker are given by users of a site, and the administration does not bear the responsibility for their maintenance. The request to not fill in the files protected by copyrights, and also files of the illegal maintenance!