[ Сегодня идет свободное скачивание без начисления Download ]


Статистика раздачи
Нет
 
   
 
Top  
 
 
-Чемпионы (2014) BDRemux
«Победы, которые у нас уже есть»
- Год выпуска: 2014
Производство: Россия / Enjoy Movies
Жанр: Спорт, драма
Перевод: Не требуется (Русский язык)
Субтитры: Отсутствуют
Режиссер: Алексей Вакулов, Артем Аксененко, Дмитрий Дюжев
Продюсер: Георгий Малков, Сарик Андреасян, Гевонд Андреасян
Актеры: Андрей Смоляков, Марк Богатырев, Андрей Федорцов, Михаил Горевой, Дмитрий Губерниев, Таисия Вилкова, Александр Молочников, Максим Виторган, Светлана Ходченкова, Ольга Тумайкина, Алексей Чадов, Игорь Верник, Константин Крюков, Татьяна Арнтгольц, Екатерина Климова, Виктор Гусев
Описание фильма:
В центре сюжета фильма история пути к чемпионским титулам нескольких спортсменов. Пять реальных историй олимпийских медалей России. Пять историй, где переплетаются любовь, предательство, дружба. Это истории настоящих побед. И за каждой победой стоит уважение, труд и вера в себя, в близких и в свою страну.

Дата мировой премьеры: 23 января 2014
Дата российской премьеры: 23 января 2014, «Каропрокат»
Дата выхода DVD релиза: 18 февраля 2014, «Lizard Cinema Trade»
Дата выхода Blu-Ray релиза: 18 февраля 2014, «Lizard Cinema Trade»
Возраст: 6+
Продолжительность: 01:37:51
Качество видео: BDRemux
Видео: MPEG4_AVC/H.264, 1920x1080, ~25588 kbps, 24 fps
Аудио 1: DTS 5.1, 768 kbps, 48 kHz [Русский]
Аудио 2: LPCM 5.1, 4608 kbps, 48 kHz [Русский]
Аудио 3: AC3 5.1, 640 kbps, 48 kHz [Русский]

Отчёт MediaInfo

Полное имя : D:\Чемпионы.(2014).BDRemux.[1080p].mkv
Формат : Matroska
Версия формата : Version 2
Размер файла : 21,6 Гбайт
Продолжительность : 1 ч. 37 м.
Режим общего битрейта : Переменный
Общий поток : 31,6 Мбит/сек
Название фильма : Чемпионы (2014) / Lelya_K for NNM-Club
Дата кодирования : UTC 2014-02-21 19:46:53
Программа кодирования : mkvmerge v5.7.0 ('The Whirlwind') built on Aug 7 2012 14:11:40
Библиотека кодирования : libebml v1.2.3 + libmatroska v1.3.0
Attachment : Yes
Видео
Идентификатор : 1
Формат : AVC
Формат/Информация : Advanced Video Codec
Профиль формата : High@L4.1
Параметр CABAC формата : Да
Параметр ReFrames формата : 4 кадра
Идентификатор кодека : V_MPEG4/ISO/AVC
Продолжительность : 1 ч. 37 м.
Вид битрейта : Переменный
Максимальный битрейт : 33,0 Мбит/сек
Ширина : 1920 пикселей
Высота : 1080 пикселей
Соотношение сторон : 16:9
Режим частоты кадров : Постоянный
Частота кадров : 24,000 кадра/сек
Стандарт вещания : NTSC
Цветовое пространство : YUV
Субдискретизация насыщенности : 4:2:0
Битовая глубина : 8 бит
Тип развёртки : Прогрессивная
Заголовок : Чемпионы.(2014).BDRemux.[1080p]
Язык : Russian
Default : Да
Forced : Нет
Основные цвета : BT.709
Характеристики трансфера : BT.709
Коэффициенты матрицы : BT.709
Аудио #1
Идентификатор : 2
Формат : DTS
Формат/Информация : Digital Theater Systems
Идентификатор кодека : A_DTS
Продолжительность : 1 ч. 37 м.
Вид битрейта : Постоянный
Битрейт : 755 Кбит/сек
Каналы : 6 каналов
Расположение каналов : Front: L C R, Side: L R, LFE
Частота : 48,0 КГц
Битовая глубина : 16 бит
Метод сжатия : С потерями
Размер потока : 528 Мбайт (2%)
Заголовок : DTS 5.1 / 768 kbps / Original
Язык : Russian
Default : Да
Forced : Нет
Аудио #2
Идентификатор : 3
Формат : PCM
Идентификатор кодека : A_PCM/INT/LIT
Продолжительность : 1 ч. 37 м.
Вид битрейта : Постоянный
Каналы : 6 каналов
Частота : 48,0 КГц
Битовая глубина : 16 бит
Заголовок : LPCM 5.1 / 4608 kbps / Original
Язык : Russian
Default : Нет
Forced : Нет
Аудио #3
Идентификатор : 4
Формат : AC-3
Формат/Информация : Audio Coding 3
Расширение режима : CM (complete main)
Параметр Endianness формата : Big
Идентификатор кодека : A_AC3
Продолжительность : 1 ч. 37 м.
Вид битрейта : Постоянный
Битрейт : 640 Кбит/сек
Каналы : 6 каналов
Расположение каналов : Front: L C R, Side: L R, LFE
Частота : 48,0 КГц
Битовая глубина : 16 бит
Метод сжатия : С потерями
Размер потока : 448 Мбайт (2%)
Заголовок : AC3 5.1 / 640 kbps / Original
Язык : Russian
Default : Нет
Forced : Нет
Меню
00:00:00.000 : ru:Chapter 1
00:00:04.000 : ru:Chapter 2
00:10:56.708 : ru:Chapter 3
00:25:52.875 : ru:Chapter 4
00:36:33.250 : ru:Chapter 5
00:52:38.541 : ru:Chapter 6
01:01:39.833 : ru:Chapter 7
01:17:17.750 : ru:Chapter 8
01:29:19.875 : ru:Chapter 9
Скриншоты:

[Цитировать]



Показать сообщения:    

Текущее время: 08-Дек 21:15

Часовой пояс: UTC + 3


Вы не можете начинать темы
Вы не можете отвечать на сообщения
Вы не можете редактировать свои сообщения
Вы не можете удалять свои сообщения
Вы не можете голосовать в опросах
Вы не можете прикреплять файлы к сообщениям
Вы не можете скачивать файлы

!ВНИМАНИЕ!
Сайт не предоставляет электронные версии произведений, а занимается лишь коллекционированием и каталогизацией ссылок, присылаемых и публикуемых на форуме нашими читателями. Если вы являетесь правообладателем какого-либо представленного материала и не желаете, чтобы ссылка на него находилась в нашем каталоге, свяжитесь с нами, и мы незамедлительно удалим ее. Файлы для обмена на трекере предоставлены пользователями сайта, и администрация не несет ответственности за их содержание. Просьба не заливать файлы, защищенные авторскими правами, а также файлы нелегального содержания!