[ Сегодня идет свободное скачивание без начисления Download ]


Статистика раздачи
Нет
 
   
 
Top  
 
 
Носферату, симфония ужаса /
Nosferatu, eine Symphonie des Grauens
Страна: Германия
Студия: Jofa-Atelier Berlin-Johannisthal, Prana-Film GmbH
Жанр: хоррор, мистика, драма
Год выпуска: 1922
Продолжительность: 01:35:11
Интертитры: немецкие
Перевод: Субтитры
Cубтитры: русские, английские
Аудиодорожка: оркестровое музыкальное сопровождение Ханса Эрдманна (1922)
Режиссер: Фридрих Вильгельм Мурнау / Friedrich Wilhelm Murnau
В ролях: Макс Шрек (Max Schreck), Густав фон Вангенхайм (Gustav von Wangenheim), Грета Шрёдер (Greta Schr?der), Георг Х. Шнель (Georg H. Schnell), Рут Ландсхоф (Ruth Landshoff), Густав Боц (Gustav Botz), Александр Гранах (Alexander Granach), Йон Готтовт (John Gottowt), Макс Немец (Max Nemetz), Вольфган Хайнц (Wolfgang Heinz) и др.
imdb
Описание: По долгу службы, агент по недвижимости Томас Хуттер (Густав фон Вангенхайм) покидает родной Бремен и отправляется в Трансильванию, дабы уладить формальности с графом Орлоком (Макс Шрек), который изъявил желание приобрести дом в его городе. В дороге Хуттеру открывается страшная тайна графа и тех мест, в которые он держит путь, однако с пути он не сворачивает. Встреча с Носферату станет ужасом для него самого и обернется кошмаром для всего города.
«Носферату, симфония ужаса» — легендарный немой фильм ужасов далекого 1922 года, наследие послевоенной Германии и новый виток развития немецкого экспрессионизма. Он по праву считается знаковой картиной всего XX века и является, пожалуй, самым известным представителем времен зарождения настоящего кинематографа. Легендарность его далеко выходит за чисто «киношные» пределы и не ограничивается лишь на его нетленном статусе и несомненной ценности как произведения киноискусства, что делает эту ленту поистине бессмертной. Прежде всего, речь идет об известной истории, порожденной жуткими слухами о том, что главную роль в фильме играл настоящий вампир, который чуть ли не питался членами съемочной группы. В результате, спустя много лет, будет снят полудокументальный кинофильм «Тень вампира», основой для которого и стало переплетение реальных событий, вымыслов и мрачных поверий времен съёмок «симфонии ужаса» в таинственных чешских горах и лесах. Наличие такого потомка, который по истечении десятков лет фактически воспевает своего «прародителя» — одно это уже говорит о многом. (kino_guru)

Сэмпл: http://multi-up.com/929935
Тип релиза: BDRip 720p
Контейнер: MKV
Видео: 962x720 at 23.976 fps, [email protected], crf, 11123 kbps [by Lesnick/SbR]
Аудио 1: 48 kHz/24 bit, DTS, 3/2 (L,C,R,l,r) + LFE ch, 1510 kbps — Hans Erdmann's original 1922 score
Аудио 2: 48 kHz, AC3, 2/0 (L,R) ch, 192 kbps — Commentary by film historian David Kalat [in english]
Аудио 3: 48 kHz, AC3, 2/0 (L,R) ch, 192 kbps — Commentary by silent film historian R.Dixon Smith and film critic Brad Stevens [in english]
Формат субтитров: 1) russian (SRT), 2) english (SRT), 3) english (PGS/SUP)
Навигация по главам: есть

MediaInfo

General
Unique ID : 249767632984699436489551215744279198724 (0xBBE77F10D1CB7AD6BCFE8CBCC9E13C04)
Complete name : Nosferatu.eine.Symphonie.des.Grauens.1922.720p.BluRay.DTS.x264-SbR.mkv
Format : Matroska
Format version : Version 4 / Version 2
File size : 8.66 GiB
Duration : 1h 35mn
Overall bit rate : 13.0 Mbps
Encoded date : UTC 2013-12-06 13:03:10
Writing application : mkvmerge v6.6.0 ('The Edge Of The In Between') built on Dec 1 2013 17:55:00
Writing library : libebml v1.3.0 + libmatroska v1.4.1
Video
ID : 1
Format : AVC
Format/Info : Advanced Video Codec
Format profile : [email protected]
Format settings, CABAC : Yes
Format settings, ReFrames : 11 frames
Codec ID : V_MPEG4/ISO/AVC
Duration : 1h 35mn
Bit rate : 10.9 Mbps
Width : 962 pixels
Height : 720 pixels
Display aspect ratio : 4:3
Frame rate : 23.976 fps
Color space : YUV
Chroma subsampling : 4:2:0
Bit depth : 8 bits
Scan type : Progressive
Bits/(Pixel*Frame) : 0.654
Stream size : 7.23 GiB (83%)
Title : Nosferatu, eine Symphonie des Grauens (1922)
Writing library : x264 core 140 r2377+40 929f149 tMod [[email protected] X86_64]
Encoding settings : cabac=1 / ref=11 / deblock=1:-1:-1 / analyse=0x3:0x133 / me=umh / subme=11 / psy=1 / fade_compensate=0.00 / psy_rd=0.90:0.05 / mixed_ref=1 / me_range=36 / chroma_me=1 / trellis=2 / 8x8dct=1 / cqm=0 / deadzone=21,11 / fast_pskip=0 / chroma_qp_offset=-3 / threads=12 / lookahead_threads=3 / sliced_threads=0 / nr=0 / decimate=0 / interlaced=0 / bluray_compat=0 / constrained_intra=0 / fgo=0 / bframes=16 / b_pyramid=2 / b_adapt=2 / b_bias=0 / direct=3 / weightb=1 / open_gop=0 / weightp=2 / keyint=250 / keyint_min=23 / scenecut=40 / intra_refresh=0 / rc=crf / mbtree=0 / crf=18.3000 / qcomp=0.75 / qpmin=0:0:0 / qpmax=69:69:69 / qpstep=4 / ip_ratio=1.40 / pb_ratio=1.30 / aq=1:0.80 / aq-sensitivity=10.00 / aq-factor=1.00:1.00:1.00 / aq2=1:0.70 / aq2-sensitivity=15.00 / aq2-factor=1.00:1.00:1.00 / aq3=0
Language : German
Default : Yes
Forced : No
Audio #1
ID : 2
Format : DTS
Format/Info : Digital Theater Systems
Codec ID : A_DTS
Duration : 1h 35mn
Bit rate mode : Constant
Bit rate : 1 510 Kbps
Channel(s) : 6 channels
Channel positions : Front: L C R, Side: L R, LFE
Sampling rate : 48.0 KHz
Bit depth : 24 bits
Compression mode : Lossy
Stream size : 1.00 GiB (12%)
Title : Hans Erdmann's original 1922 score
Language : German
Default : Yes
Forced : No
Audio #2
ID : 3
Format : AC-3
Format/Info : Audio Coding 3
Mode extension : CM (complete main)
Format settings, Endianness : Big
Codec ID : A_AC3
Duration : 1h 35mn
Bit rate mode : Constant
Bit rate : 192 Kbps
Channel(s) : 2 channels
Channel positions : Front: L R
Sampling rate : 48.0 KHz
Bit depth : 16 bits
Compression mode : Lossy
Stream size : 131 MiB (1%)
Title : Commentary by film historian David Kalat
Language : English
Default : No
Forced : No
Audio #3
ID : 4
Format : AC-3
Format/Info : Audio Coding 3
Mode extension : CM (complete main)
Format settings, Endianness : Big
Codec ID : A_AC3
Duration : 1h 35mn
Bit rate mode : Constant
Bit rate : 192 Kbps
Channel(s) : 2 channels
Channel positions : Front: L R
Sampling rate : 48.0 KHz
Bit depth : 16 bits
Compression mode : Lossy
Stream size : 131 MiB (1%)
Title : Commentary by silent film historian R.Dixon Smith and film critic Brad Stevens
Language : English
Default : No
Forced : No
Text #1
ID : 5
Format : UTF-8
Codec ID : S_TEXT/UTF8
Codec ID/Info : UTF-8 Plain Text
Title : srt
Language : Russian
Default : Yes
Forced : No
Text #2
ID : 6
Format : UTF-8
Codec ID : S_TEXT/UTF8
Codec ID/Info : UTF-8 Plain Text
Title : srt
Language : English
Default : No
Forced : No
Text #3
ID : 7
Format : PGS
Muxing mode : zlib
Codec ID : S_HDMV/PGS
Codec ID/Info : The same subtitle format used on BDs/HD-DVDs
Title : sup
Language : English
Default : No
Forced : No
Menu
00:00:00.000 : en:Introduction
00:03:31.544 : en:Act 1: Wisborg
00:10:22.663 : en:Hutter's Journey
00:13:47.284 : en:The Inn
00:18:47.543 : en:Beyond the Bridge
00:26:18.243 : en:Act 2: Orlok's Castle
00:32:51.469 : en:Deeds
00:39:20.274 : en:Dawn
00:43:15.676 : en:Act 3: Earth-Filled Coffins
00:46:17.775 : en:Mysteries of Nature
00:50:35.365 : en:Ellen
00:54:05.200 : en:Ship of Death
01:02:08.725 : en:Act 4: The Master is Coming
01:10:40.486 : en:Plague
01:16:30.210 : en:Act 5: Ellen Reads
01:23:07.232 : en:Knock, The Scapegoat
01:26:31.102 : en:A Maiden Without Sin
01:30:39.434 : en:Morning Light

x264 log

x264 [info]: frame I:742 Avg QP:17.43 size:141737
x264 [info]: frame P:22675 Avg QP:18.89 size: 87215
x264 [info]: frame B:113515 Avg QP:19.81 size: 51605
x264 [info]: encoded 136932 frames, 7.458 fps, 11122.93 kb/s, 7572.8 MB

Скриншоты: рип vs исходник





[Цитировать]



Показать сообщения:    

Текущее время: 06-Дек 03:57

Часовой пояс: UTC + 3


Вы не можете начинать темы
Вы не можете отвечать на сообщения
Вы не можете редактировать свои сообщения
Вы не можете удалять свои сообщения
Вы не можете голосовать в опросах
Вы не можете прикреплять файлы к сообщениям
Вы не можете скачивать файлы

!ВНИМАНИЕ!
Сайт не предоставляет электронные версии произведений, а занимается лишь коллекционированием и каталогизацией ссылок, присылаемых и публикуемых на форуме нашими читателями. Если вы являетесь правообладателем какого-либо представленного материала и не желаете, чтобы ссылка на него находилась в нашем каталоге, свяжитесь с нами, и мы незамедлительно удалим ее. Файлы для обмена на трекере предоставлены пользователями сайта, и администрация не несет ответственности за их содержание. Просьба не заливать файлы, защищенные авторскими правами, а также файлы нелегального содержания!