[ Сегодня идет свободное скачивание без начисления Download ]


Статистика раздачи
Нет
 
   
 
 
 
-ЗА РОДИНУ! Часть 4/4 (В тылу врага; Неслужебное задание; Истребители; Если завтра война) КОЛЛЕКЦИОННОЕ ИЗДАНИЕ. 3хDVD9+1xDVD5- Описание: Война всегда начинается внезапно. В 1941 году началась самая страшная - Великая Отечественная. День победы СССР над фашистской Германией в Великую Отечественную Войну был и остаётся одним из самых почитаемых праздников в нашей стране.
В серию сборников "За Родину" вошли фильмы наиболее полно передающие атмосферу того героического времени. Это и самые последние современные художественные фильмы о войне, документальная хроника военных лет и фильмы военного времени, ставшие классикой. Эти сборники будут интересны и молодому поколению и, безусловно, станут прекрасным подарком нашим любимым родителям.
Дополнительная информация: Это лицензионное издание на шестнадцати дисках, по четыре диска в коробке. Прилагаются сканы обложек каждой коробки с фильмом, каждой "супер-коробки", а также плакатов времён ВОВ, типа "Родина-Мать зовёт!", которыми комплектовалось это издание.
Качество: DVD9
Формат: DVD Video
Видео: PAL 4:3 (720x576) VBR
Аудио: Russian (Dolby AC3, 2 ch)В тылу врага (Секретное оружие)- Год выпуска: 2006
Страны: Россия
Слоган: «'Brat protiv brata'»
Жанры: боевик, драма, мелодрама, военный
Продолжительность: 01:29:15
Режиссер: Виталий Воробьев
Сценарий: Вера Федорова
Продюсер: Сергей Кучков
Оператор: Павел Кулаков
Композитор : Алексей Карпов
Художник: Виктор Фомин, Николай Рудоплатов, Анатолий Дидковский
Монтаж: Надежда Преснова, Олег Заводчиков
В ролях: Кирилл Плетнёв (Андрей Бесфамильный), Иван Моховиков (Шмелёв), Вадим Андреев (генерал Мирошников), Михаил Присмотров (Урусов), Сергей Жарков (Глущенков), Ян Цапник (капитан Тихомиров), Захар Ронжин (Милютин), Олег Валкман (Павлюченко)

Описание: Разведчики взвода лейтенанта Бесфамильного получают задание — проверить информацию о секретном бункере фашистов. Они успешно переходят линию фронта, но дальше все идет не так, как было запланировано…

Премьера (РФ): 23 февраля 2006
Качество: DVD5
Формат: DVD Video
Видео: PAL 4:3 (720x576) VBR
Аудио: Russian (Dolby AC3, 2 ch)
Субтитры: нет

DVDInfo

Title: Elements
Size: 3.99 Gb ( 4 183 130 KBytes ) - DVD-5
Enabled regions: 1, 2, 3, 4, 5, 6, 7, 8
VTS_01 :
Play Length: 01:29:15+00:00:09
Video: PAL 4:3 (704x576) VBR
Audio:
English (Dolby AC3, 2 ch)

MediaInfo

Общее
Полное имя : F:\DVD\ZA_RODINU_4th_Boxed_Set\ZA_RODINU_4th_Boxed_Set__V_Tylu_Vraga__DVD5\VIDEO_TS\VTS_01_1.VOB
Формат : MPEG-PS
Размер файла : 1000 Мбайт
Продолжительность : 23 м.
Режим общего битрейта : Переменный
Общий поток : 6039 Кбит/сек
Видео
Идентификатор : 224 (0xE0)
Формат : MPEG Video
Версия формата : Version 2
Профиль формата : Main@Main
Параметр BVOP формата : Да
Параметр матрицы формата : Выборочная
Параметр GOP формата : M=3, N=15
Продолжительность : 23 м.
Вид битрейта : Переменный
Битрейт : 5726 Кбит/сек
Максимальный битрейт : 9300 Кбит/сек
Ширина : 720 пикселей
Высота : 576 пикселей
Соотношение сторон : 4:3
Частота кадров : 25,000 кадров/сек
Стандарт вещания : PAL
Цветовое пространство : YUV
Субдискретизация насыщенности : 4:2:0
Битовая глубина : 8 бит
Тип развёртки : Чересстрочная
Порядок развёртки : Нижнее поле первое
Метод сжатия : С потерями
Бит/(Пиксели*Кадры) : 0.552
Размер потока : 949 Мбайт (95%)
Аудио
Идентификатор : 189 (0xBD)-128 (0x80)
Формат : AC-3
Формат/Информация : Audio Coding 3
Расширение режима : CM (complete main)
Параметр Endianness формата : Big
Режим смешивания : DVD-Video
Продолжительность : 23 м.
Вид битрейта : Постоянный
Битрейт : 192 Кбит/сек
Каналы : 2 канала
Расположение каналов : Front: L R
Частота : 48,0 КГц
Битовая глубина : 16 бит
Метод сжатия : С потерями
Размер потока : 31,8 Мбайт (3%)
Меню

Дополнительно

Бонусы: нет

Скриншоты меню

Скриншоты:
Неслужебное задание- Год выпуска: 2004
Страны: Россия
Жанры: боевик, военный
Продолжительность: 01:33:22
Режиссер: Виталий Воробьев
Сценарий: Вера Федорова, Сергей Сергеев
Продюсер: Сергей Кучков, Елена Вашуркина
Оператор: Сергей Бондарев
Композитор : Алексей Карпов
В ролях: Павел Майков (лейтенант Серба), Михаил Присмотров , Сергей Греков , Алексей Ильин , Василий Слюсаренко , Роман Квашнин (немец), Григорий Калинин , Тимур Савин (Петро)

Описание: Войны заканчиваются не тогда, когда под тем или иным документом поставлена маршальская подпись, а когда прекращают стрелять. Действие фильма происходит сразу после войны на территории Чехии. Германия капитулировала, но в тылах Советской Армии еще продолжают сопротивляться разрозненные фашистские отряды.Командиру разведроты старшему лейтенанту Воронкову приказано обезвредить одну из таких немецких групп. Собственных сил не хватает, поэтому Воронков обращается к соседям — казачьему соединению. Задание поначалу кажется несложным. Но рядовая погоня превращается в смертельную схватку…

Сборы в России: $135 000
Премьера (РФ): 6 мая 2004, «Гельварс»
Качество: DVD9
Формат: DVD Video
Видео: PAL 4:3 (720x576) VBR
Аудио: Russian (Dolby AC3, 6 ch)
Субтитры: нет

DVDInfo

Title: Elements
Size: 4.83 Gb ( 5 066 236 KBytes ) - DVD-9
Enabled regions: 1, 2, 3, 4, 5, 6, 7, 8
VTS_01 :
Play Length: 01:33:22+00:00:09
Video: PAL 4:3 (704x576) VBR
Audio:
Russian (Dolby AC3, 2 ch)

MediaInfo

Общее
Полное имя : F:\DVD\ZA_RODINU_4th_Boxed_Set\ZA_RODINU_4th_Boxed_Set__Nesluzhebnoe_Zadanie__DVD5\VIDEO_TS\VTS_01_1.VOB
Формат : MPEG-PS
Размер файла : 1000 Мбайт
Продолжительность : 19 м.
Режим общего битрейта : Переменный
Общий поток : 7209 Кбит/сек
Видео
Идентификатор : 224 (0xE0)
Формат : MPEG Video
Версия формата : Version 2
Профиль формата : Main@Main
Параметр BVOP формата : Да
Параметр матрицы формата : По умолчанию
Параметр GOP формата : M=3, N=12
Продолжительность : 19 м.
Вид битрейта : Переменный
Битрейт : 6841 Кбит/сек
Максимальный битрейт : 9000 Кбит/сек
Ширина : 720 пикселей
Высота : 576 пикселей
Соотношение сторон : 4:3
Частота кадров : 25,000 кадров/сек
Стандарт вещания : PAL
Цветовое пространство : YUV
Субдискретизация насыщенности : 4:2:0
Битовая глубина : 8 бит
Тип развёртки : Чересстрочная
Порядок развёртки : Нижнее поле первое
Метод сжатия : С потерями
Бит/(Пиксели*Кадры) : 0.660
Размер потока : 949 Мбайт (95%)
Аудио
Идентификатор : 189 (0xBD)-128 (0x80)
Формат : AC-3
Формат/Информация : Audio Coding 3
Расширение режима : CM (complete main)
Параметр Endianness формата : Big
Режим смешивания : DVD-Video
Продолжительность : 19 м.
Вид битрейта : Постоянный
Битрейт : 224 Кбит/сек
Каналы : 2 канала
Расположение каналов : Front: L R
Частота : 48,0 КГц
Битовая глубина : 16 бит
Метод сжатия : С потерями
Задержка видео : -80 мс.
Размер потока : 31,1 Мбайт (3%)
Меню

Дополнительно

Бонусы: нет

Скриншоты меню

Скриншоты:
Истребители- Год выпуска: 1939
Страны: СССР
Жанры: приключения
Продолжительность: 01:31:00
Режиссер: Эдуард Пенцлин
Сценарий: Федор Кнорре
Оператор: Николай Топчий
Композитор : Никита Богословский
Художник: Михаил Солоха, Николай Тряскин
В ролях: Марк Бернес (лейтенант Кожухаров), Евгения Голынчик (Варя), Борис Андреев , Федор Селезнев (авиатехник Яшин), Владимир Уральский (отец Кожухарова), Алексей Загорский (профессор), Елена Музиль (бабушка), Е. Лилина (мать Кожухарова)

Описание: Летчики-истребители Сергей и Николай вместе испытывают новые самолеты и во всем стараются превзойти друг друга. Их соперничество началось еще в школьные годы, когда оба были увлечены симпатичной одноклассницей Варей.Трагическая случайность привела Сергея к полной слепоте. Варе, давно любящей его, предстоит нелегкое решение: стать женой инвалида…

Зрители: СССР 27.1 млн
Премьера (мир): 29 ноября 1939
Релиз на DVD: 19 мая 2005, «Союз-Видео»-Если завтра война...-Год выпуска: 1938
Страны: СССР
Жанр: драма
Продолжительность: 01:19:00
Режиссер: Лазарь Анци-Половский, Ефим Дзиган, Николай Кармазинский, ...
Сценарий: Ефим Дзиган, Георгий Березко, Михаил Светлов
Оператор: Евгений Ефимов
Композитор : Даниил Покрасс, Дмитрий Покрасс
Художник: Михаил Тюнов
В ролях: Инна Федорова (жена командира), Всеволод Санаев (грамотный боец), Е. Сергеев

Описание: Фильм о том, как советский народ в конце 30-х годов прошлого века представлял грядущую войну…

Премьера (мир): 23 февраля 1938
Качество: DVD9
Формат: DVD Video
Видео: PAL 4:3 (720x576) VBR
Аудио: Russian (Dolby AC3, 2 ch)
Субтитры: нет

DVDInfo

Title:
Size: 7.55 Gb ( 7 913 154 KBytes ) - DVD-9
Enabled regions: 1, 2, 3, 4, 5, 6, 7, 8
VTS_01 :
Play Length: 01:31:46+01:01:24
Video: PAL 4:3 (704x576) VBR
Audio:
English (Dolby AC3, 2 ch)
VTS_02 :
Play Length: 00:00:09
Video: PAL 4:3 (704x576) VBR

MediaInfo

Общее
Полное имя : F:\DVD\ZA_RODINU_4th_Boxed_Set\ZA_RODINU_4th_Boxed_Set__Istrebiteli__Esli Zavtra_Voyna__DVD9\VIDEO_TS\VTS_01_2.VOB
Формат : MPEG-PS
Размер файла : 1000 Мбайт
Продолжительность : 26 м.
Режим общего битрейта : Переменный
Общий поток : 5300 Кбит/сек
Видео
Идентификатор : 224 (0xE0)
Формат : MPEG Video
Версия формата : Version 2
Профиль формата : Main@Main
Параметр BVOP формата : Да
Параметр матрицы формата : По умолчанию
Параметр GOP формата : M=3, N=13
Продолжительность : 26 м.
Вид битрейта : Переменный
Битрейт : 4875 Кбит/сек
Максимальный битрейт : 8000 Кбит/сек
Ширина : 720 пикселей
Высота : 576 пикселей
Соотношение сторон : 4:3
Частота кадров : 25,000 кадров/сек
Стандарт вещания : PAL
Цветовое пространство : YUV
Субдискретизация насыщенности : 4:2:0
Битовая глубина : 8 бит
Тип развёртки : Чересстрочная
Порядок развёртки : Верхнее поле первое
Метод сжатия : С потерями
Бит/(Пиксели*Кадры) : 0.470
Размер потока : 920 Мбайт (92%)
Основные цвета : BT.601 PAL
Характеристики трансфера : BT.470 System B, BT.470 System G
Коэффициенты матрицы : BT.601
Аудио
Идентификатор : 189 (0xBD)-128 (0x80)
Формат : AC-3
Формат/Информация : Audio Coding 3
Расширение режима : CM (complete main)
Параметр Endianness формата : Big
Режим смешивания : DVD-Video
Продолжительность : 26 м.
Вид битрейта : Постоянный
Битрейт : 320 Кбит/сек
Каналы : 2 канала
Расположение каналов : Front: L R
Частота : 48,0 КГц
Битовая глубина : 16 бит
Метод сжатия : С потерями
Задержка видео : -216 мс.
Размер потока : 60,4 Мбайт (6%)
Меню

Дополнительно

Бонусы: нет

Скриншоты меню

Скриншоты:

Мемуары ветеранов: память солдатская - диск 2- Год выпуска: 2006
Жанр: Документальный
Продолжительность: 04:49:00
Описание: Этот телевизионный документальный проект, посвящённый участникам Великой Отечественной Войны, также представляет собой уникальный видео архив воспоминаний участников и свидетелей Великой Отечественной Войны - генералов, простых солдат, работников тыла. В каждой серии ветераны ВОВ вспоминают свою жизнь до войны и во время войны. Все сложности, радости и будни военного времени в рассказах участников событий. Война в воспоминании оставшихся в живых ветеранов. Это наша история, наша память и наша слава. [Извините, аннотацию писал какой-то потс неграмотный, но фильм познавательный - прим. релизера]
Качество: DVD9
Формат: DVD Video
Видео: PAL 4:3 (720x576) CBR
Аудио: Russian (Dolby AC3, 2 ch)
Субтитры: нет

DVDInfo

Title:
Size: 7.60 Gb ( 7 973 626 KBytes ) - DVD-9
Enabled regions: 1, 2, 3, 4, 5, 6, 7, 8
VTS_01 :
Play Length: 00:27:42+00:28:58+00:29:12+00:30:17+00:28:43+00:28:51+00:28:28+00:28:37+00:28:50+00:29:00
Video: PAL 4:3 (704x576) CBR
Audio:
English (Dolby AC3, 2 ch)
VTS_02 :
Play Length: 00:00:09
Video: PAL 4:3 (704x576) VBR

MediaInfo

Общее
Полное имя : F:\DVD\ZA_RODINU_4th_Boxed_Set\ZA_RODINU_4th_Boxed_Set__Memuary_Veteranov_Pamyat`_Soldatskaya_Disk2_DVD9\VIDEO_TS\VTS_01_2.VOB
Формат : MPEG-PS
Размер файла : 1000 Мбайт
Продолжительность : 8 м. 7 с.
Режим общего битрейта : Переменный
Общий поток : 17,2 Мбит/сек
Видео
Идентификатор : 224 (0xE0)
Формат : MPEG Video
Версия формата : Version 2
Профиль формата : Main@Main
Параметр BVOP формата : Да
Параметр матрицы формата : Выборочная
Параметр GOP формата : Variable
Продолжительность : 8 м. 7 с.
Вид битрейта : Переменный
Битрейт : 16,7 Мбит/сек
Максимальный битрейт : 6000 Кбит/сек
Ширина : 352 пикселя
Высота : 576 пикселей
Соотношение сторон : 4:3
Частота кадров : 25,000 кадров/сек
Стандарт вещания : PAL
Цветовое пространство : YUV
Субдискретизация насыщенности : 4:2:0
Битовая глубина : 8 бит
Тип развёртки : Чересстрочная
Порядок развёртки : Верхнее поле первое
Метод сжатия : С потерями
Бит/(Пиксели*Кадры) : 3.292
Размер потока : 969 Мбайт (97%)
Аудио
Идентификатор : 189 (0xBD)-128 (0x80)
Формат : AC-3
Формат/Информация : Audio Coding 3
Расширение режима : CM (complete main)
Параметр Endianness формата : Big
Режим смешивания : DVD-Video
Продолжительность : 8 м. 7 с.
Вид битрейта : Постоянный
Битрейт : 192 Кбит/сек
Каналы : 2 канала
Расположение каналов : Front: L R
Частота : 48,0 КГц
Битовая глубина : 16 бит
Метод сжатия : С потерями
Задержка видео : -200 мс.
Размер потока : 11,2 Мбайт (1%)
Меню

Дополнительно

Бонусы: нет

Скриншоты меню

Скриншоты:

Описание для портала

Описание: Война всегда начинается внезапно. В 1941 году началась самая страшная - Великая Отечественная. День победы СССР над фашистской Германией в Великую Отечественную Войну был и остаётся одним из самых почитаемых праздников в нашей стране.
В серию сборников "За Родину" вошли фильмы наиболее полно передающие атмосферу того героического времени. Это и самые последние современные художественные фильмы о войне, документальная хроника военных лет и фильмы военного времени, ставшие классикой. Эти сборники будут интересны и молодому поколению и, безусловно, станут прекрасным подарком нашим любимым родителям.
Жанр: драма, военный
Продолжительность: ~ 4 x 01:33:22
Скриншоты:
Время раздачи: 24/7, до 10 скачавших

[Цитировать]



Показать сообщения:    

Текущее время: 10-Дек 10:03

Часовой пояс: UTC + 3


Вы не можете начинать темы
Вы не можете отвечать на сообщения
Вы не можете редактировать свои сообщения
Вы не можете удалять свои сообщения
Вы не можете голосовать в опросах
Вы не можете прикреплять файлы к сообщениям
Вы не можете скачивать файлы

!ВНИМАНИЕ!
Сайт не предоставляет электронные версии произведений, а занимается лишь коллекционированием и каталогизацией ссылок, присылаемых и публикуемых на форуме нашими читателями. Если вы являетесь правообладателем какого-либо представленного материала и не желаете, чтобы ссылка на него находилась в нашем каталоге, свяжитесь с нами, и мы незамедлительно удалим ее. Файлы для обмена на трекере предоставлены пользователями сайта, и администрация не несет ответственности за их содержание. Просьба не заливать файлы, защищенные авторскими правами, а также файлы нелегального содержания!