[ Сегодня идет свободное скачивание без начисления Download ]


Статистика раздачи
Нет
 
   
 
Top  
 
 
-Малолетка / Jailbait (2013) WEB-DLRip- Год выпуска: 2013
Производство: США
Жанр: Триллер, Эротика, Драма
Перевод: Одноголосый закадровый, любительский
Озвучка / Автор перевода: Xixidok
Дата мировой премьеры: 31 декабря 2013
Режиссер: Джаред Кон
Актеры: Саманта Кардона, Сара Малакул Лэйн, Эрин О’Брайэн, Дженнифер Джейкобс, Ребекка Роули, Николь Александра Шипли, Баррет Перлман, Тэмми Клейн, Диана Дейнджер, Хирам А. Мюррэй
Описание фильма:
После непредумышленного убийства отчима, который по пьяне пытался изнасиловать несовершеннолетнюю Анну, она попадает в колонию для несовершеннолетних, на 4 года. Там, пытаясь отстоять свою независимость, она подвергается террору...

Продолжительность: 01:29:35
Качество видео: WEB-DLRip
Видеокодек: Xvid
Битрейт видео: ~1798 kb/s
Размер кадра: 720x400
Аудио#1: Русский, AC3 2.0, 192 kb/s
Аудио#2: Английский, AC3 2.0, 192 kb/s
Сэмпл: Скачать

MediaInfo

Общее
Полное имя : D:\Jailbait.2013.L1.WEB-DLRip.1400MB.avi
Формат : AVI
Формат/Информация : Audio Video Interleave
Размер файла : 1,37 Гбайт
Продолжительность : 1 ч. 29 м.
Общий поток : 2196 Кбит/сек
Программа кодирования : VirtualDubMod 1.5.10.3 | www.virtualdub-fr.org || (build 2550/release)
Библиотека кодирования : VirtualDubMod build 2550/release
Видео
Идентификатор : 0
Формат : MPEG-4 Visual
Профиль формата : Advanced [email protected]
Параметр BVOP формата : 1
Параметр QPel формата : Нет
Параметр GMC формата : Без точки перехода
Параметр матрицы формата : Выборочная
Идентификатор кодека : XVID
Идентификатор кодека/Подсказка : XviD
Продолжительность : 1 ч. 29 м.
Битрейт : 1798 Кбит/сек
Ширина : 720 пикселей
Высота : 400 пикселей
Соотношение сторон : 16:9
Частота кадров : 23,976 кадра/сек
Цветовое пространство : YUV
Субдискретизация насыщенности : 4:2:0
Битовая глубина : 8 бит
Тип развёртки : Прогрессивная
Метод сжатия : С потерями
Бит/(Пиксели*Кадры) : 0.260
Размер потока : 1,13 Гбайт (82%)
Библиотека кодирования : XviD 73
Аудио #1
Идентификатор : 1
Формат : AC-3
Формат/Информация : Audio Coding 3
Расширение режима : CM (complete main)
Параметр Endianness формата : Big
Идентификатор кодека : 2000
Продолжительность : 1 ч. 29 м.
Вид битрейта : Постоянный
Битрейт : 192 Кбит/сек
Каналы : 2 канала
Расположение каналов : Front: L R
Частота : 44,1 КГц
Битовая глубина : 16 бит
Метод сжатия : С потерями
Размер потока : 123 Мбайт (9%)
Выравнивание : Разделение по промежуткам
Продолжительность промежутка : 42 мс. (1,00 видеокадр)
Время предзагрузки промежутка : 500 мс.
Аудио #2
Идентификатор : 2
Формат : AC-3
Формат/Информация : Audio Coding 3
Расширение режима : CM (complete main)
Параметр Endianness формата : Big
Идентификатор кодека : 2000
Продолжительность : 1 ч. 29 м.
Вид битрейта : Постоянный
Битрейт : 192 Кбит/сек
Каналы : 2 канала
Расположение каналов : Front: L R
Частота : 48,0 КГц
Битовая глубина : 16 бит
Метод сжатия : С потерями
Размер потока : 123 Мбайт (9%)
Выравнивание : Разделение по промежуткам
Продолжительность промежутка : 42 мс. (1,00 видеокадр)
Время предзагрузки промежутка : 500 мс.
Скриншоты:
[th]http://img.torrentsclub.org/di/CMYI/12f5eddce522fad...da8c0ae.jpg[/th] [th]http://img.torrentsclub.org/di/HSB2/445ba26c0e28a66...dede87d.jpg[/th] [th]http://img.torrentsclub.org/di/LE0T/472ffbd2aefaa67...f9a5b47.jpg[/th]
Время раздачи: с 16:00 до 02:00

[Цитировать]



Показать сообщения:    

Текущее время: 05-Дек 17:38

Часовой пояс: UTC + 3


Вы не можете начинать темы
Вы не можете отвечать на сообщения
Вы не можете редактировать свои сообщения
Вы не можете удалять свои сообщения
Вы не можете голосовать в опросах
Вы не можете прикреплять файлы к сообщениям
Вы не можете скачивать файлы

!ВНИМАНИЕ!
Сайт не предоставляет электронные версии произведений, а занимается лишь коллекционированием и каталогизацией ссылок, присылаемых и публикуемых на форуме нашими читателями. Если вы являетесь правообладателем какого-либо представленного материала и не желаете, чтобы ссылка на него находилась в нашем каталоге, свяжитесь с нами, и мы незамедлительно удалим ее. Файлы для обмена на трекере предоставлены пользователями сайта, и администрация не несет ответственности за их содержание. Просьба не заливать файлы, защищенные авторскими правами, а также файлы нелегального содержания!