[ Сегодня идет свободное скачивание без начисления Download ]


Статистика раздачи
Нет
 
   
 
Top  
 
 
Одну тебя люблю (1-16 серии из 16) (Алексей Козлов) [2012, мелодрама, DVB]
Перевод: Не требуется, cубтитры: Украинские (вшитые)
Формат: DVB, MPEG, MPEG2, MP2
Страна: Россия, ПЦ "Все хорошо"
Режиссер: Алексей Козлов
Жанр: мелодрама
Всего серий: 16
Продолжительность: 16 х ~ 0:45:00
Год выпуска: 2012
В ролях: Алексей Зубков, Юрий Кузьменков, Даниил Спиваковский, Алексей Бардуков, Кирилл Плетнев, Ольга Ломоносова, Георгий Тараторкин, Ярослав Бойко, Николай Добрынин, Зоя Буряк, Даниэла Стоянович, Максим Меркулов (II), Илья Божко, Дмитрий Кочкин, Оксана Сурнина, Наталья Ткаченко, Наташа Фенкина, Иван Паршин, Дарья Циберкина, Анна Арефьева, Есения Завьялова, Ольга Завьялова, Федор Копасов, Ирина Королева, Людмила Героева
Описание: Судьба страны через судьбы людей - вот, если кратко, суть и идея фильма. Мы начинаем в начале шестидесятых и заканчиваем в наши дни. Место действия - деревня в южной Сибири...
Несколько поколений людей, их обычная жизнь: с любовью и ненавистью, со страданиями и радостями, с мечтами и разочарованиями. И всё это в реальной обстановке русского двадцатого века: при беспрестанных «переломах», «переменах», «революциях» и «перестройках». То славим социализм и вождей, то проклинаем тех, кого славили; то героически строим, то торопливо ломаем только что построенное; то митингуем в защиту Кубы и Вьетнама, то идём воевать в Афганистан; то заставят сеять кукурузу там, где испокон веков рос ячмень, то приказывают кукурузу выжечь и на пашнях строить свиноводческие комплексы. Тем не менее, люди всегда оставались людьми: любили, страдали, воспитывали детей. Вот об этой простой жизни простых людей и рассказывает фильм...
Героев двое: Володя и Степан. Володе в начале сериала семь лет, а в конце - за пятьдесят. На глазах у зрителей этот человек повзрослеет, познает первую любовь, первые страдания и радости. Пройдя через множество испытаний, он останется достойным человеком. Степан - простой деревенский мужик. По ложному обвинению его осудили на три года тюрьмы. За это время молодая жена Степана родила девочку от другого мужчины - заезжего ловеласа. Это не сломило нашего героя, не озлобило. Он нашёл в себе силы простить жену, а девочку вырастил и воспитал как собственную дочь. Много лет проработает Степан председателем колхоза. Переживёт все «реформы» и «эксперименты», проводившиеся в двадцатом веке над русской деревней. Однако в девяностые колхоз начнёт рушиться, как и всё в стране.


Видео: 768х576@720x576 (4:3), 25 fps, MPEG2 Video, Main@Main, ~4800 Kbps, 0.46 bit/pixel
Аудио: 48 kHz, MPEG Layer 2, 2 ch, ~320 kbps avg

MediaInfo

Общее
Полное имя : D:\Одну тебя люблю DVB\Одну тебя люблю 01_серия_DVB_by_Серый1779.mpg
Формат : MPEG-PS
Размер файла : 1,74 Гбайт
Продолжительность : 48 м.
Общий поток : 5184 Кбит/сек
Видео
Идентификатор : 224 (0xE0)
Формат : MPEG Video
Версия формата : Version 2
Профиль формата : Main@Main
Параметр BVOP формата : Да
Параметр матрицы формата : По умолчанию
Параметры GOP формата : M=1, N=23
Продолжительность : 48 м.
Вид битрейта : Переменный
Битрейт : 4800 Кбит/сек
Ширина : 720 пикс.
Высота : 576 пикс.
Соотношение сторон : 4:3
Частота кадров : 25,000 кадр/сек
Стандарт вещания : PAL
Цветовое пространство : YUV
Подвыборка цветности : 4:2:0
Битовая глубина : 8 бит
Тип развёртки : Чересстрочная
Порядок развёртки : Верхнее поле первое
Метод сжатия : С потерями
Бит/(Пиксели*Кадры) : 0.463
Размер потока : 1,60 Гбайт (92%)
Аудио
Идентификатор : 192 (0xC0)
Формат : MPEG Audio
Версия формата : Version 1
Профиль формата : Layer 2
Продолжительность : 48 м.
Вид битрейта : Постоянный
Битрейт : 320 Кбит/сек
Каналы : 2 канала
Частота : 48,0 КГц
Метод сжатия : С потерями
Размер потока : 110 Мбайт (6%)

Показать скриншоты




[Цитировать]



Показать сообщения:    

Текущее время: 10-Дек 23:31

Часовой пояс: UTC + 3


Вы не можете начинать темы
Вы не можете отвечать на сообщения
Вы не можете редактировать свои сообщения
Вы не можете удалять свои сообщения
Вы не можете голосовать в опросах
Вы не можете прикреплять файлы к сообщениям
Вы не можете скачивать файлы

!ВНИМАНИЕ!
Сайт не предоставляет электронные версии произведений, а занимается лишь коллекционированием и каталогизацией ссылок, присылаемых и публикуемых на форуме нашими читателями. Если вы являетесь правообладателем какого-либо представленного материала и не желаете, чтобы ссылка на него находилась в нашем каталоге, свяжитесь с нами, и мы незамедлительно удалим ее. Файлы для обмена на трекере предоставлены пользователями сайта, и администрация не несет ответственности за их содержание. Просьба не заливать файлы, защищенные авторскими правами, а также файлы нелегального содержания!