[ Сегодня идет свободное скачивание без начисления Download ]


Статистика раздачи
Качаю: [ 1 ]
 
   
 
Top  
 
 
Бандитский Петербург 1-10 (1-90 серии из 90) (Владимир Бортко) [2000-2007, драма, криминал, детектив, DVDRip-AVC]
Перевод: Не требуется Субтитры: Отсутствуют
Слоган: «Когда власть - в руках криминала»
Формат: DVDRip-AVC, MKV, H264, AC3
Страна: Россия | КиноМост, 2-Б-2, Медиа-Стелс
Режиссер: Владимир Бортко
Жанр: драма, криминал, детектив
Всего серий: 90
Продолжительность: 90 х ~00:47:00
Год выпуска: 2000-2007
В ролях: Лев Борисов, Александр Домогаров, Кирилл Лавров, Ольга Дроздова, Дмитрий Певцов, Евгений Сидихин, Андрей Толубеев, Евгения Крюкова, Армен Джигарханян, Игорь Лифанов, Евгений Дятлов, Алексей Серебряков, Олег Басилашвили, Зинаида Шарко, Алексей Девотченко, Леонид Максимов, Николай Рудик, Михаил Пореченков, Александр Лыков, Андрей Краско, Анастасия Мельникова, Роман Агеев, Пётр Вельяминов, Юрий Ковалев, Сергей Барковский, Анатолий Петров, Александр Большаков, Виктор Сухоруков, Олеся Судзиловская, Михаил Разумовский, Анна Самохина, Юрий Цурило, Ян Цапник, Николай Чиндяйкин, Юрий Ицков, Александр Песков, Дмитрий Щербина, Константин Воробьёв, Кирилл Плетнёв
Описание: Журналист Серёгин собирал материалы по делу об обычной квартирной краже, но вышел на более серьёзное преступление. Работая в одиночку и пытаясь самостоятельно во всем разобраться, он оказывается вовлечённым в опаснейшие события. Рассказывается о пропаже драгоценной картины Рембрандта "Эгина", за которой "охотятся" коррумпированные менты. Вор в законе Михеев по кличке Барон (Лавров), немолодой уже человек, становится соучастником преступления, но его подставляют, и он попадает в тюрьму..

Видео: 688x528 (1.30:1), 23.976 fps, AVC (x264), High@ L4.1 ~1957 kbps avg, 0.216 bit/pixel. (1-6 сезоны)
Видео: 704x528 (1.33:1), 23.976 fps, AVC (x264), High@ L4.1 ~1932 kbps avg, 0.217 bit/pixel. (7-10 сезоны)
Аудио: 48 kHz, AC3 Dolby Digital, 2/0 (L, R) ch, ~192-224 kbps. (1, 4, 6-10)
Аудио: 48 kHz, AC3 Dolby Digital, 3/2 (L, C, R, l, r) + LFE ch, ~448 kbps. (2, 3, 5)

7-10 сезоны

Формат : Matroska
Версия формата : Version 2
Размер файла : 714 Мбайт
Продолжительность : 46 м.
Общий поток : 2167 Кбит/сек
Дата кодирования : UTC 2011-11-28 07:27:50
Программа кодирования : mkvmerge v5.0.1 ('Es ist Sommer') built on Oct 9 2011 11:55:43
Библиотека кодирования : libebml v1.2.2 + libmatroska v1.3.0
Видео
Идентификатор : 1
Формат : AVC
Формат/Информация : Advanced Video Codec
Профиль формата : [email protected]
Параметр CABAC формата : Да
Параметр ReFrames формата : 5 кадров
Параметр GOP формата : N=1
Идентификатор кодека : V_MPEG4/ISO/AVC
Продолжительность : 46 м.
Битрейт : 1932 Кбит/сек
Ширина : 704 пикселя
Высота : 528 пикселей
Соотношение сторон : 4:3
Режим частоты кадров : Постоянный
Частота кадров : 25, 000 кадров/сек
Цветовое пространство : YUV
Субдискретизация насыщенности : 4:2:0
Битовая глубина : 8 бит
Тип развёртки : Прогрессивная
Бит/(Пиксели*Кадры) : 0.217
Размер потока : 637 Мбайт (89%)
Default : Да
Forced : Нет
Аудио
Идентификатор : 2
Формат : AC-3
Формат/Информация : Audio Coding 3
Расширение режима : CM (complete main)
Параметр Endianness формата : Big
Идентификатор кодека : A_AC3
Продолжительность : 46 м.
Вид битрейта : Постоянный
Битрейт : 192 Кбит/сек
Каналы : 2 канала
Расположение каналов : Front: L R
Частота : 48, 0 КГц
Битовая глубина : 16 бит
Метод сжатия : С потерями
Задержка видео : 21 мс.
Размер потока : 63, 3 Мбайт (9%)
Default : Да
Forced : Нет

1-6 сезоны





7-10 сезоны





[Цитировать]



Показать сообщения:    

Текущее время: 05-Дек 17:39

Часовой пояс: UTC + 3


Вы не можете начинать темы
Вы не можете отвечать на сообщения
Вы не можете редактировать свои сообщения
Вы не можете удалять свои сообщения
Вы не можете голосовать в опросах
Вы не можете прикреплять файлы к сообщениям
Вы не можете скачивать файлы

!ВНИМАНИЕ!
Сайт не предоставляет электронные версии произведений, а занимается лишь коллекционированием и каталогизацией ссылок, присылаемых и публикуемых на форуме нашими читателями. Если вы являетесь правообладателем какого-либо представленного материала и не желаете, чтобы ссылка на него находилась в нашем каталоге, свяжитесь с нами, и мы незамедлительно удалим ее. Файлы для обмена на трекере предоставлены пользователями сайта, и администрация не несет ответственности за их содержание. Просьба не заливать файлы, защищенные авторскими правами, а также файлы нелегального содержания!