[ Сегодня идет свободное скачивание без начисления Download ]


Статистика раздачи
Нет
 
   
 
Top  
 
 
Апартаменты 1303
Apartment 1303
- Год выпуска: 2012
Страна: США, Канада (MonteCristo Entertainment, ImageWorks Entertainment)
Жанр: Ужасы, Триллер
Продолжительность: 01:25:14
Перевод: Профессиональный (дублированный) (R5)
Русские субтитры: нет
Режиссер: Мишель Таверна / Michael Taverna-Роли исполняли (дублировали):
... ... ...
Lara Slate - Миша Бартон
Maddie Slate - Ребекка Де Морнэй
Janet Slate - Джулианна Мишель
Mark Taylor - Кори Севьер
Detective - Джон Дил
Mover - Джиллиан Олтмэн
Waitress - Кэтерин Клилэнд
Journalist - Франческо Джаннини
Jennifer Logan - Кэтлин Мэкки
Lidia - Джессика Малька
O'Neil - Гордон Мастен (Александр Груздев)
Emily - Мэдисон МакАлир (Василиса Эльдарова)
Police Dispatch - Колин Несмит
Joyce - Грэйс Сэвадж
Young Dealer - Антуан Яред
-Описание: В этой квартире всегда рады новым жильцам. Но никто не знает о легенде проклятия, которое здесь обитает. Говорят в апартаментах N1303, живут призраки матери и дочери, погибшие насильственной смертью. Не найдя покоя, духи мертвых жаждят отомстить своим убийцам. Каждый, кто переступает порог комнаты ужаса, становится их заложником. И еще никому не удалось вырваться из плена смерти…-Доп. информация: Американский римейк японского ужастика 2007-го года 1303-g?shitsu (Apartment 1303).
Прежде чем скачивать, посмотрите на рейтинги и почитайте отзывы, например, в 2Д-релизах этого фильма на трекере...-Премьера: 6 декабря 2012
Релиз на DVD: 21 января 2013

. .
-Качество: BDRip (by Ash61)
Контейнер: MKV
Формат 3D: Half OverUnder / Вертикальная анаморфная стереопара
Порядок ракурсов: левый ракурс первый
Видео кодек: x264
Аудио кодек: AC3-Видео: AVC / 23,976 fps / 1920х1080p / 5 044 Kbps
Аудио:
#1 - Русский / AC3 / 48 KHz / 5.1 ch / 384 Kbps (Дубляж - R5)
#2 - Английский / AC3 / 48 KHz / 5.1 ch / 640 Kbps (Original)
Субтитры: Отсутствуют

Лог и MediaInfo


General
Unique ID : 218162836752839962593348282196861816820 (0xA420A24E2ED056DF900FE3268C6E8FF4)
Complete name : G:\Downloads\Apartment1303(3D-HalfOU)2012(Ash61).mkv
Format : Matroska
Format version : Version 2
File size : 3.69 GiB
Duration : 1h 25mn
Overall bit rate : 6 191 Kbps
Movie name : Апартаменты 1303 / Apartment 1303 (3D) 2012
Encoded date : UTC 2013-06-01 10:33:48
Writing application : mkvmerge v5.8.0 ('No Sleep / Pillow') built on Sep 2 2012 15:37:04
Writing library : libebml v1.2.3 + libmatroska v1.3.0
Video
ID : 1
Format : AVC
Format/Info : Advanced Video Codec
Format profile : [email protected]
Format settings, CABAC : Yes
Format settings, ReFrames : 4 frames
Codec ID : V_MPEG4/ISO/AVC
Duration : 1h 25mn
Bit rate : 5 044 Kbps
Width : 1 920 pixels
Height : 1 080 pixels
Display aspect ratio : 16:9
Frame rate mode : Constant
Frame rate : 23.976 fps
Color space : YUV
Chroma subsampling : 4:2:0
Bit depth : 8 bits
Scan type : Progressive
Bits/(Pixel*Frame) : 0.101
Stream size : 3.00 GiB (81%)
Title : BDRip by Ash61
Writing library : x264 core 129 r2245 bc13772
Encoding settings : cabac=1 / ref=4 / deblock=1:-3:-3 / analyse=0x3:0x113 / me=umh / subme=9 / psy=1 / psy_rd=1.00:0.15 / mixed_ref=1 / me_range=32 / chroma_me=1 / trellis=2 / 8x8dct=1 / cqm=0 / deadzone=21,11 / fast_pskip=1 / chroma_qp_offset=-3 / threads=12 / lookahead_threads=2 / sliced_threads=0 / nr=0 / decimate=1 / interlaced=0 / bluray_compat=0 / constrained_intra=0 / bframes=6 / b_pyramid=2 / b_adapt=2 / b_bias=0 / direct=3 / weightb=1 / open_gop=0 / weightp=2 / keyint=250 / keyint_min=23 / scenecut=40 / intra_refresh=0 / rc_lookahead=60 / rc=crf / mbtree=1 / crf=18.0 / qcomp=0.70 / qpmin=0 / qpmax=69 / qpstep=4 / vbv_maxrate=40000 / vbv_bufsize=30000 / crf_max=0.0 / nal_hrd=none / frame-packing=4 / ip_ratio=1.40 / aq=1:0.70
Language : English
Default : Yes
Forced : No
Audio #1
ID : 2
Format : AC-3
Format/Info : Audio Coding 3
Mode extension : CM (complete main)
Format settings, Endianness : Big
Codec ID : A_AC3
Duration : 1h 25mn
Bit rate mode : Constant
Bit rate : 384 Kbps
Channel(s) : 6 channels
Channel positions : Front: L C R, Side: L R, LFE
Sampling rate : 48.0 KHz
Bit depth : 16 bits
Compression mode : Lossy
Stream size : 234 MiB (6%)
Title : Дубляж - R5
Language : Russian
Default : Yes
Forced : No
Audio #2
ID : 3
Format : AC-3
Format/Info : Audio Coding 3
Mode extension : CM (complete main)
Format settings, Endianness : Big
Codec ID : A_AC3
Duration : 1h 25mn
Bit rate mode : Constant
Bit rate : 640 Kbps
Channel(s) : 6 channels
Channel positions : Front: L C R, Side: L R, LFE
Sampling rate : 48.0 KHz
Bit depth : 16 bits
Compression mode : Lossy
Stream size : 390 MiB (10%)
Title : Original
Language : English
Default : No
Forced : No
Menu
00:00:00.000 : :1
00:05:47.013 : :2
00:11:42.285 : :3
00:18:30.318 : :4
00:22:51.704 : :5
00:29:48.870 : :6
00:36:12.587 : :7
00:43:00.912 : :8
00:49:26.297 : :9
00:54:54.875 : :10
01:04:03.256 : :11
01:14:00.478 : :12

Скриншоты

Для оценки 3д - Анимированные скрины









[Цитировать]



Показать сообщения:    

Текущее время: 06-Дек 03:53

Часовой пояс: UTC + 3


Вы не можете начинать темы
Вы не можете отвечать на сообщения
Вы не можете редактировать свои сообщения
Вы не можете удалять свои сообщения
Вы не можете голосовать в опросах
Вы не можете прикреплять файлы к сообщениям
Вы не можете скачивать файлы

!ВНИМАНИЕ!
Сайт не предоставляет электронные версии произведений, а занимается лишь коллекционированием и каталогизацией ссылок, присылаемых и публикуемых на форуме нашими читателями. Если вы являетесь правообладателем какого-либо представленного материала и не желаете, чтобы ссылка на него находилась в нашем каталоге, свяжитесь с нами, и мы незамедлительно удалим ее. Файлы для обмена на трекере предоставлены пользователями сайта, и администрация не несет ответственности за их содержание. Просьба не заливать файлы, защищенные авторскими правами, а также файлы нелегального содержания!