[ Сегодня идет свободное скачивание без начисления Download ]


Статистика раздачи
Нет
 
   
 
Top  
 
 
Приключения Шаркбоя и Лавы 3Д/The Adventures of Sharkboy and Lavagirl 3D«Маленькие да удаленькие»
Год выпуска: 2005
Страна: США (Columbia Pictures)
Жанр: фэнтези, боевик, приключения, семейный
Продолжительность: 1:33:14
Перевод: Профессиональный (дублированный)
Русские субтитры: нет
Режиссер: Роберт Родригес / Robert Rodriguez-Роли озвучивали (дублировали):-Шаркбой -Тэйлор Лотнер
Макс - Кейден БойдАндрей Кошкин
Лава -Тэйлор Дули - Ольга Вечерик
учитель/Мистер Электрик -Джордж Лопез - Геннадий Богачёв
отец Макса - Дэвид Аркетт - Евгений Иванов
мать Макса - Кристин Дэвис
Линус/Минус - Джейкоб Дэвич
Марисса/Ледяная Принцесса - Саша Питерс - Варвара Чабан
отец Шаркбоя - Рикардо ТорресОписание:Из-за трудностей в общении со сверстниками 10-летний герой картины оказывается вынужден проводить очередные каникулы в одиночестве. Чтобы хоть как-то скрасить тяготы одинокого времяпрепровождения, он придумывает себе двух несуществующих друзей, мальчика-акулу и девочку-лаву, вместе с которыми пускается в волшебное путешествие, полное самых загадочных опасностей…

Техн. детали съёмки

Премьера: 10 июня 2005 (4 августа 2005)
Бюджет: $7 000 000
Кассовые сборы: $69 425 966
Релиз на DVD и Blu-Ray:17 июля 2013

. .
Проверено на встроенном плейере ТВ LG LW 650S
--Дополнительная информация по релизу: 3D рип от HDChina--Качество: BDrip
Контейнер: MKV
Формат 3D: Anamorph OverUnder / Вертикальная анаморфная стереопара
Порядок ракурсов: левый ракурс первый
Видео кодек: x264
Аудио кодек: AC3-Видео: AVC / 23,976 fps / 1920х1080p / 9746 Kbps
Аудио 1: - Русский / AC3 / 48 KHz / 5.1 ch / 640 Kbps (Дубляж)
Аудио 2: - Русский/ AC3 / 48 KHz / 2.0 ch / 192 Kbps (AVO) авторский одноголосый, Гранкин
Аудио 3: - Английский / AC3 / 48 KHz / 5.1 ch / 640 Kbps
Субтитры: нет

MediaInfo

Общее
Уникальный идентификатор : 197619258661594024575080513001607480866 (0x94AC15B46E2490B599839D6CEF394622)
Полное имя : E:\3Д фильмы\The.Adventures.of.Sharkboy.and.Lavagirl (3D)2005.AC3.HalfOU.BDRip.1080p.mkv
Формат : Matroska
Версия формата : Version 4 / Version 2
Размер файла : 7,33 Гбайт
Продолжительность : 1 ч. 33 м.
Общий поток : 11,3 Мбит/сек
Название фильма : by marik of =HDChina=
Дата кодирования : UTC 2010-02-22 21:41:31
Программа кодирования : mkvmerge v5.9.0 ('On The Loose') built on Dec 9 2012 15:37:01
Библиотека кодирования : libebml v1.3.0 + libmatroska v1.4.0
Видео
Идентификатор : 1
Формат : AVC
Формат/Информация : Advanced Video Codec
Профиль формата : [email protected]
MultiView_Count : 2
MultiView_Layout : Top-Bottom (left eye first)
Параметр CABAC формата : Да
Параметр ReFrames формата : 4 кадра
Идентификатор кодека : V_MPEG4/ISO/AVC
Продолжительность : 1 ч. 33 м.
Битрейт : 9746 Кбит/сек
Ширина : 1920 пикселей
Высота : 1080 пикселей
Соотношение сторон : 16:9
Режим частоты кадров : Постоянный
Частота кадров : 23,976 кадра/сек
Цветовое пространство : YUV
Субдискретизация насыщенности : 4:2:0
Битовая глубина : 8 бит
Тип развёртки : Прогрессивная
Бит/(Пиксели*Кадры) : 0.196
Размер потока : 6,35 Гбайт (87%)
Библиотека кодирования : x264 core 129 r2230 1cffe9f
Настройки программы : cabac=1 / ref=4 / deblock=1:-3:-3 / analyse=0x3:0x113 / me=umh / subme=10 / psy=1 / psy_rd=1.00:0.15 / mixed_ref=1 / me_range=32 / chroma_me=1 / trellis=2 / 8x8dct=1 / cqm=0 / deadzone=21,11 / fast_pskip=1 / chroma_qp_offset=-3 / threads=18 / lookahead_threads=3 / sliced_threads=0 / nr=0 / decimate=1 / interlaced=0 / bluray_compat=0 / constrained_intra=0 / bframes=6 / b_pyramid=2 / b_adapt=1 / b_bias=0 / direct=3 / weightb=1 / open_gop=0 / weightp=2 / keyint=250 / keyint_min=23 / scenecut=40 / intra_refresh=0 / rc_lookahead=40 / rc=crf / mbtree=1 / crf=18.0 / qcomp=0.60 / qpmin=10 / qpmax=69 / qpstep=4 / vbv_maxrate=40000 / vbv_bufsize=30000 / crf_max=0.0 / nal_hrd=none / ip_ratio=1.40 / aq=1:1.00
Default : Да
Forced : Нет
Аудио #1
Идентификатор : 2
Формат : AC-3
Формат/Информация : Audio Coding 3
Расширение режима : CM (complete main)
Параметр Endianness формата : Big
Идентификатор кодека : A_AC3
Продолжительность : 1 ч. 33 м.
Вид битрейта : Постоянный
Битрейт : 448 Кбит/сек
Каналы : 6 каналов
Расположение каналов : Front: L C R, Side: L R, LFE
Частота : 48,0 КГц
Битовая глубина : 16 бит
Метод сжатия : С потерями
Размер потока : 299 Мбайт (4%)
Заголовок : AC3 5.1 @ 448 kbps - Дублированный
Язык : Russian
Default : Да
Forced : Нет
Аудио #2
Идентификатор : 3
Формат : AC-3
Формат/Информация : Audio Coding 3
Расширение режима : CM (complete main)
Параметр Endianness формата : Big
Идентификатор кодека : A_AC3
Продолжительность : 1 ч. 33 м.
Вид битрейта : Постоянный
Битрейт : 192 Кбит/сек
Каналы : 2 канала
Расположение каналов : Front: L R
Частота : 48,0 КГц
Битовая глубина : 16 бит
Метод сжатия : С потерями
Размер потока : 128 Мбайт (2%)
Заголовок : AC3 2.0 @ 192 kbps - (AVO) Гранкин
Язык : Russian
Default : Нет
Forced : Нет
Аудио #3
Идентификатор : 4
Формат : AC-3
Формат/Информация : Audio Coding 3
Расширение режима : CM (complete main)
Параметр Endianness формата : Big
Идентификатор кодека : A_AC3
Продолжительность : 1 ч. 33 м.
Вид битрейта : Постоянный
Битрейт : 640 Кбит/сек
Каналы : 6 каналов
Расположение каналов : Front: L C R, Side: L R, LFE
Частота : 48,0 КГц
Битовая глубина : 16 бит
Метод сжатия : С потерями
Размер потока : 427 Мбайт (6%)
Заголовок : AC3 5.1 @ 640 kbps - Оригинальный
Язык : English
Default : Нет
Forced : Нет
Меню
00:00:00.000 : en:00:00:00.000
00:05:28.411 : en:00:05:28.411
00:12:53.564 : en:00:12:53.564
00:18:45.458 : en:00:18:45.458
00:22:06.408 : en:00:22:06.408
00:27:39.241 : en:00:27:39.241
00:34:29.776 : en:00:34:29.776
00:40:06.779 : en:00:40:06.779
00:44:29.625 : en:00:44:29.625
00:47:52.328 : en:00:47:52.328
00:50:39.203 : en:00:50:39.203
00:53:40.926 : en:00:53:40.926
01:01:32.314 : en:01:01:32.314
01:08:12.505 : en:01:08:12.505
01:13:34.660 : en:01:13:34.660
01:19:00.110 : en:01:19:00.110
01:26:03.283 : en:01:26:03.283
01:27:05.011 : en:01:27:05.011

Скриншоты

[Цитировать]



Показать сообщения:    

Текущее время: 04-Дек 03:00

Часовой пояс: UTC + 3


Вы не можете начинать темы
Вы не можете отвечать на сообщения
Вы не можете редактировать свои сообщения
Вы не можете удалять свои сообщения
Вы не можете голосовать в опросах
Вы не можете прикреплять файлы к сообщениям
Вы не можете скачивать файлы

!ВНИМАНИЕ!
Сайт не предоставляет электронные версии произведений, а занимается лишь коллекционированием и каталогизацией ссылок, присылаемых и публикуемых на форуме нашими читателями. Если вы являетесь правообладателем какого-либо представленного материала и не желаете, чтобы ссылка на него находилась в нашем каталоге, свяжитесь с нами, и мы незамедлительно удалим ее. Файлы для обмена на трекере предоставлены пользователями сайта, и администрация не несет ответственности за их содержание. Просьба не заливать файлы, защищенные авторскими правами, а также файлы нелегального содержания!