[ Сегодня идет свободное скачивание без начисления Download ]


Статистика раздачи
Нет
 
   
 
Top  
 
 
Обитель зла 4: Жизнь после смертиResident Evil: Afterlife
Год выпуска: 2010
Страна: Германия, Франция, Великобритания (Constantin Film, Screen Gems, Davis Films, Impact Canada)
Жанр: Боевик, Ужасы, Фантастика
Продолжительность: 01:36:51
Перевод: Русский дубляж, Украинский дубляж
Русские субтитры: есть
Режиссер: Пол У. С. Андерсон / Paul W.S. Anderson
Роли исполняли (Дублировали): Элис - Милла Йовович (Ирина Киреева)
Клэр Рэдфилд - Эли Лартер
Крис Рэдфилд - Вентворт Миллер (Сергей Быстрицкий)
Лютер Уэст - Борис Коджо (Владислав Копп)
Беннетт - Ким Коутс (Никита Прозоровский)
Альберт Уэскер - Шоун Робертс (Юрий Деркач)
Энджел Ортиз - Серджо Перис-Менчета (Александр Коврижных)
Кристэл - Кейси Барнфилд
Ким Йонг - Норман Енг (Диомид Виноградов)
Уэнделл - Фульвио Чечере (Олег Щербинин)
Кей-Март - Спенсер Лок
Описание: Элис продолжает свой путь в мире, поражённом вирусной инфекцией, превращающей людей в нежить. Героиня ищет оставшихся в живых, чтобы вывести их в безопасное место. Её смертельная битва с корпорацией Амбрелла выходит на новый уровень, когда она вдруг получает неожиданную помощь от старого друга. Он обещает привести Элис в безопасную зону в Лос-Анджелесе, но как только они попадают в город, то видят тысячи и тысячи заражённых и оказываются в смертельной ловушке.-- Проверено на встроенном плейере ТВ Samsung UE-C7000--Качество: BDrip
Контейнер: MKV
Формат 3D: Half OverUnder / Вертикальная анаморфная стереопара
Порядок ракурсов: левый ракурс первый
Видео кодек: x264
Аудио кодек: AC3
Видео: AVC / 23,976 fps / 1920х1080p / 9,2 Mbps
Аудио#1: Русский / AC3 / 48 KHz / 5.1 ch / 448 Kbps
Аудио#2: Украинский / AC3 / 48 KHz / 5.1 ch / 448 Kbps
Аудио#3: Английский / AC3 / 48 KHz / 5.1 ch / 640 Kbps
Субтитры#1: srt внешние - Русские форсированные (включены по умолчанию)
Субтитры#2: srt softsub - Русские форсированные
Субтитры#3: srt softsub - Русские полные
Субтитры#4: srt softsub - Английские
Субтитры#5: srt softsub - Английские SDH

MediaInfo

General
UniqueID : 240780247983819969910183132792554998226 (0xB52496C624461C088EC4E777530F49D2)
Complete name : F:\Downloads\ResidentEvil4(3D)2010.halfOU(ash61)\ResidentEvil4(3D)2010.halfOU(ash61).mkv
Format : Matroska
File size : 7.42 GiB
Duration : 1h 36mn
Overall bit rate : 11.0 Mbps
Movie name : Resident Evil: Afterlife (3D) 2010 (ash61)
Encoded date : UTC 2012-03-27 13:03:57
Writing application : mkvmerge v3.4.0 ('Rapunzel') сборка от May 15 2010 09:38:20
Writing library : libebml v0.8.0 + libmatroska v0.9.0
Video
ID : 1
Format : AVC
Format/Info : Advanced Video Codec
Format profile : [email protected]
Format settings, CABAC : Yes
Format settings, ReFrames : 4 frames
Format settings, GOP : M=2, N=16
Codec ID : V_MPEG4/ISO/AVC
Duration : 1h 36mn
Bit rate : 9 215 Kbps
Width : 1 920 pixels
Height : 1 080 pixels
Display aspect ratio : 16:9
Frame rate : 23.976 fps
Color space : YUV
Chroma subsampling : 4:2:0
Bit depth : 8 bits
Scan type : Progressive
Bits/(Pixel*Frame) : 0.185
Stream size : 6.24 GiB (84%)
Title : BDrip by ash61
Writing library : x264 core 119 r2106 07efeb4
Encoding settings : cabac=1 / ref=4 / deblock=1:-3:-3 / analyse=0x3:0x113 / me=umh / subme=9 / psy=1 / psy_rd=1.00:0.15 / mixed_ref=1 / me_range=16 / chroma_me=1 / trellis=2 / 8x8dct=1 / cqm=0 / deadzone=21,11 / fast_pskip=1 / chroma_qp_offset=-3 / threads=3 / sliced_threads=0 / nr=0 / decimate=1 / interlaced=0 / bluray_compat=0 / constrained_intra=0 / bframes=6 / b_pyramid=2 / b_adapt=2 / b_bias=0 / direct=3 / weightb=1 / open_gop=0 / weightp=2 / keyint=250 / keyint_min=23 / scenecut=40 / intra_refresh=0 / rc_lookahead=60 / rc=crf / mbtree=1 / crf=17.0 / qcomp=0.70 / qpmin=0 / qpmax=69 / qpstep=4 / vbv_maxrate=40000 / vbv_bufsize=40000 / crf_max=0.0 / nal_hrd=none / ip_ratio=1.40 / aq=1:0.70
Audio #1
ID : 2
Format : AC-3
Format/Info : Audio Coding 3
Mode extension : CM (complete main)
Codec ID : A_AC3
Duration : 1h 36mn
Bit rate mode : Constant
Bit rate : 448 Kbps
Channel(s) : 6 channels
Channel positions : Front: L C R, Side: L R, LFE
Sampling rate : 48.0 KHz
Bit depth : 16 bits
Compression mode : Lossy
Stream size : 310 MiB (4%)
Title : Дубляж
Language : Russian
Audio #2
ID : 3
Format : AC-3
Format/Info : Audio Coding 3
Mode extension : CM (complete main)
Codec ID : A_AC3
Duration : 1h 36mn
Bit rate mode : Constant
Bit rate : 448 Kbps
Channel(s) : 6 channels
Channel positions : Front: L C R, Side: L R, LFE
Sampling rate : 48.0 KHz
Bit depth : 16 bits
Compression mode : Lossy
Stream size : 310 MiB (4%)
Title : Дубляж
Language : Ukrainian
Audio #3
ID : 4
Format : AC-3
Format/Info : Audio Coding 3
Mode extension : CM (complete main)
Codec ID : A_AC3
Duration : 1h 36mn
Bit rate mode : Constant
Bit rate : 640 Kbps
Channel(s) : 6 channels
Channel positions : Front: L C R, Side: L R, LFE
Sampling rate : 48.0 KHz
Bit depth : 16 bits
Compression mode : Lossy
Stream size : 443 MiB (6%)
Language : English
Text #1
ID : 5
Format : UTF-8
Codec ID : S_TEXT/UTF8
Codec ID/Info : UTF-8 Plain Text
Title : Форсированные srt
Language : Russian
Text #2
ID : 6
Format : UTF-8
Codec ID : S_TEXT/UTF8
Codec ID/Info : UTF-8 Plain Text
Title : Полные srt
Language : Russian
Text #3
ID : 7
Format : UTF-8
Codec ID : S_TEXT/UTF8
Codec ID/Info : UTF-8 Plain Text
Title : Full srt
Language : English
Text #4
ID : 8
Format : UTF-8
Codec ID : S_TEXT/UTF8
Codec ID/Info : UTF-8 Plain Text
Title : SDH srt
Language : English
Menu
00:00:00.000 : :1
00:07:50.845 : :2
00:14:05.386 : :3
00:19:22.578 : :4
00:25:24.523 : :5
00:30:08.890 : :6
00:35:10.442 : :7
00:41:53.803 : :8
00:47:09.618 : :9
00:53:43.804 : :10
01:00:56.695 : :11
01:08:02.704 : :12
01:14:11.322 : :13
01:17:58.841 : :14
01:23:43.810 : :15
01:27:29.744 : :16

Скриншоты


[Цитировать]



Показать сообщения:    

Текущее время: 06-Дек 15:13

Часовой пояс: UTC + 3


Вы не можете начинать темы
Вы не можете отвечать на сообщения
Вы не можете редактировать свои сообщения
Вы не можете удалять свои сообщения
Вы не можете голосовать в опросах
Вы не можете прикреплять файлы к сообщениям
Вы не можете скачивать файлы

!ВНИМАНИЕ!
Сайт не предоставляет электронные версии произведений, а занимается лишь коллекционированием и каталогизацией ссылок, присылаемых и публикуемых на форуме нашими читателями. Если вы являетесь правообладателем какого-либо представленного материала и не желаете, чтобы ссылка на него находилась в нашем каталоге, свяжитесь с нами, и мы незамедлительно удалим ее. Файлы для обмена на трекере предоставлены пользователями сайта, и администрация не несет ответственности за их содержание. Просьба не заливать файлы, защищенные авторскими правами, а также файлы нелегального содержания!