[ Сегодня идет свободное скачивание без начисления Download ]


Статистика раздачи
Качаю: [ 1 ]
 
   
 
Top  
 
 
Мой кровавый ВалентинMy Bloody Valentine
Год выпуска: 2009
Страна: США (Lionsgate)
Жанр: Ужасы, Триллер, Детектив
Продолжительность: 01:41:00
Перевод: Профессиональный (дублированный)
Русские субтитры: нет
Режиссер: Патрик Люссье / Patrick Lussier
В ролях: Дженсен Эклс, Джейми Кинг, Керр Смит, Бетси Ру, Эди Гатеги, Том Аткинс, Кевин Тай, Меган Бун, Карен Баумм, Джой Де Ла Пас
Роли дублировали: Пётр Иващенко, Ольга Зубкова, Василий Дахненко, Людмила Шувалова, Александр Рахленко, Рудольф Панков, Олег Куценко, Жанна Никонова, Михаил Георгиу
Описание: Том возвращается в родной городок, спустя 10 лет после ужасных событий, произошедших в День святого Валентина. С приездом молодого человека жители города начинают умирать от рук неизвестного маньяка, и подозрения сразу же падают на Тома. Вместе с девушкой Сарой, в которую он когда-то был влюблен, Том обязан найти неуловимого убийцу…--Проверено на встроенном плейере ТВ Samsung UE-C7000 --Качество: BDrip
Контейнер: MKV
Формат 3D: Half OverUnder / Вертикальная анаморфная стереопара
Порядок ракурсов: левый ракурс первый
Видео кодек: x264
Аудио кодек: AC3
Видео: AVC / 1920х1080p / 23,976 fps / 6501 Kbps
Аудио#1: Русский / AC3 / 48 KHz / 5.1 ch / 448 Kbps
Аудио#2: Английский / AC3 / 48 KHz / 5.1 ch / 640 Kbps
Субтитры: Отсутствуют

MediaInfo

General
UniqueID : 185892264537980856850899521529989755815 (0x8BD98C413B747820A6F16C9BFBE2F3A7)
Complete name : F:\Downloads\MyBloodyValentine(3D)2009.halfOU(ash61).mkv
Format : Matroska
File size : 5.46 GiB
Duration : 1h 41mn
Overall bit rate : 7 743 Kbps
Movie name : My Bloody Valentine (3D) 2009 (ash61)
Encoded date : UTC 2012-03-18 17:11:20
Writing application : mkvmerge v3.4.0 ('Rapunzel') сборка от May 15 2010 09:38:20
Writing library : libebml v0.8.0 + libmatroska v0.9.0
Video
ID : 1
Format : AVC
Format/Info : Advanced Video Codec
Format profile : High@L4.1
Format settings, CABAC : Yes
Format settings, ReFrames : 4 frames
Codec ID : V_MPEG4/ISO/AVC
Duration : 1h 41mn
Bit rate : 6 501 Kbps
Width : 1 920 pixels
Height : 1 080 pixels
Display aspect ratio : 16:9
Frame rate : 23.976 fps
Color space : YUV
Chroma subsampling : 4:2:0
Bit depth : 8 bits
Scan type : Progressive
Bits/(Pixel*Frame) : 0.131
Stream size : 4.59 GiB (84%)
Title : BDrip by ash61
Writing library : x264 core 113 r1884 7313bb5
Encoding settings : cabac=1 / ref=4 / deblock=1:-1:-1 / analyse=0x3:0x113 / me=umh / subme=9 / psy=1 / psy_rd=1.00:0.15 / mixed_ref=1 / me_range=16 / chroma_me=1 / trellis=2 / 8x8dct=1 / cqm=0 / deadzone=21,11 / fast_pskip=1 / chroma_qp_offset=-3 / threads=3 / sliced_threads=0 / nr=0 / decimate=1 / interlaced=0 / constrained_intra=0 / bframes=6 / b_pyramid=2 / b_adapt=2 / b_bias=0 / direct=3 / weightb=1 / open_gop=0 / weightp=2 / keyint=250 / keyint_min=23 / scenecut=40 / intra_refresh=0 / rc_lookahead=60 / rc=crf / mbtree=1 / crf=18.0 / qcomp=0.60 / qpmin=0 / qpmax=69 / qpstep=4 / ip_ratio=1.40 / aq=1:1.00
Audio #1
ID : 2
Format : AC-3
Format/Info : Audio Coding 3
Mode extension : CM (complete main)
Codec ID : A_AC3
Duration : 1h 41mn
Bit rate mode : Constant
Bit rate : 448 Kbps
Channel(s) : 6 channels
Channel positions : Front: L C R, Side: L R, LFE
Sampling rate : 48.0 KHz
Bit depth : 16 bits
Compression mode : Lossy
Video delay : 300ms
Stream size : 324 MiB (6%)
Language : Russian
Audio #2
ID : 3
Format : AC-3
Format/Info : Audio Coding 3
Mode extension : CM (complete main)
Codec ID : A_AC3
Duration : 1h 41mn
Bit rate mode : Constant
Bit rate : 640 Kbps
Channel(s) : 6 channels
Channel positions : Front: L C R, Side: L R, LFE
Sampling rate : 48.0 KHz
Bit depth : 16 bits
Compression mode : Lossy
Stream size : 462 MiB (8%)
Language : English
Menu
00:00:00.000 : :01
00:05:06.765 : :02
00:09:27.442 : :03
00:12:44.806 : :04
00:18:35.990 : :05
00:24:29.927 : :06
00:29:03.867 : :07
00:37:41.176 : :08
00:46:00.716 : :09
00:52:14.757 : :10
00:58:13.156 : :11
01:06:31.571 : :12
01:13:08.467 : :13
01:18:36.837 : :14
01:27:49.139 : :15
01:32:56.404 : :16

Скриншоты

[Цитировать]



Показать сообщения:    

Текущее время: 07-Дек 19:30

Часовой пояс: UTC + 3


Вы не можете начинать темы
Вы не можете отвечать на сообщения
Вы не можете редактировать свои сообщения
Вы не можете удалять свои сообщения
Вы не можете голосовать в опросах
Вы не можете прикреплять файлы к сообщениям
Вы не можете скачивать файлы

!ВНИМАНИЕ!
Сайт не предоставляет электронные версии произведений, а занимается лишь коллекционированием и каталогизацией ссылок, присылаемых и публикуемых на форуме нашими читателями. Если вы являетесь правообладателем какого-либо представленного материала и не желаете, чтобы ссылка на него находилась в нашем каталоге, свяжитесь с нами, и мы незамедлительно удалим ее. Файлы для обмена на трекере предоставлены пользователями сайта, и администрация не несет ответственности за их содержание. Просьба не заливать файлы, защищенные авторскими правами, а также файлы нелегального содержания!