[ Сегодня идет свободное скачивание без начисления Download ]


Статистика раздачи
Нет
 
   
 
Top  
 
 
Сектор 7
Sector 7

Год выпуска: 2011
Страна: Южная Корея
Жанр: ужасы, фантастика, боевик
Продолжительность: 01:41:03
Перевод:
Любительский (одноголосый закадровый) den904
Любительский (двухголосый закадровый) "GREEN TEA" [pandora2177, mi24]
Русские субтитры: есть, фансаб-группа "Мания" [Октябрина, Сана]-Режиссер:
Ким Джи-хун
Сценарист:
Дже-гён Юн
В ролях:
Ха Чжи Вон, Ан Сон-ги, О Чжи-хо, Ли Хан-ви, Парк Чео-мин, Сонг Сае-буек-Описание:
Местом действия становится корейская буровая вышка, расположенная к югу от острова Чечжудо. Работающие здесь геологи ведут разведывательные работы, пытаясь найти месторождение нефти. Однако эти поиски оказываются неудачными. В один из дней они получают приказ начальства свернуть всю деятельность и в срочном порядке вернуться на сушу. Для надзора за эвакуацией сотрудников с вышки из штаба пребывает Чон Ман, один из старейших и опытнейших специалистов компании. Однако решение начальства не нравится инженеру Хэ Чжун, которая уверена, что в данном районе есть нефть, и не желает следовать приказам Чон Мана. Ситуация принимает непредвиденный поворот, когда электроснабжение станции отключается, и геологи оказываются полностью отрезанными от внешнего мира. Смогут ли они выбраться живыми из этой ловушки, которая готовит им много страшных сюрпризов? Доп. информация: Аудио дорога №1 получена наложением чистого голоса на звуковую дорогу AC3 5.1, выполнил Pinnhate.
За аудио №2 спасибо SHAKIR79-Качество: BDrip by TopGun
Контейнер: MKV
Формат 3D: Anamorph OverUnder / Вертикальная анаморфная стереопара
Видео кодек: x264
Аудио кодек: AC3
Видео: AVC, 1920x1080, 23.976 кадр/сек, 11,7 Мбит/сек
Аудио 1: русский; AC3, 6 каналов, 448 Кбит/сек, 48,0 КГц (den904)
Аудио 2: русский; AC3, 6 каналов, 640 Кбит/сек, 48,0 КГц (GREEN TEA)
Аудио 3: корейский; AC3, 6 каналов, 640 Кбит/сек, 48,0 КГц (Оригинал)

СКРИНШОТЫ

MI

Общее
Уникальный идентификатор : 172174595325484382445736299287670681674 (0x81879EF1FE0BD3A8AF74B56EE98FF04A)
Полное имя : G:\RipMake\sector_7\Sector7.3D.2011.BD3DRip.Half.OU.x264.AC3.2xRus.Kor.mkv
Формат : Matroska
Версия формата : Version 2
Размер файла : 9,69 Гбайт
Продолжительность : 1 ч. 41 м.
Общий поток : 13,7 Мбит/сек
Название фильма : Sector 7 by TopGun
Дата кодирования : UTC 2012-03-07 12:48:17
Программа кодирования : mkvmerge v3.4.0 ('Rapunzel') сборка от May 15 2010 09:38:20
Библиотека кодирования : libebml v0.8.0 + libmatroska v0.9.0
Видео
Идентификатор : 1
Формат : AVC
Формат/Информация : Advanced Video Codec
Профиль формата : High@L4.1
Параметр CABAC формата : Да
Параметр ReFrames формата : 4 кадра
Идентификатор кодека : V_MPEG4/ISO/AVC
Продолжительность : 1 ч. 41 м.
Битрейт : 11,7 Мбит/сек
Ширина : 1920 пикселей
Высота : 1080 пикселей
Соотношение сторон : 16:9
Частота кадров : 23,976 кадра/сек
Цветовое пространство : YUV
Субдискретизация насыщенности : 4:2:0
Битовая глубина : 8 бит
Тип развёртки : Прогрессивная
Бит/(Пиксели*Кадры) : 0.236
Размер потока : 8,28 Гбайт (85%)
Заголовок : rip by TopGun
Библиотека кодирования : x264 core 116 r2074 2641b9e
Настройки программы : cabac=1 / ref=4 / deblock=1:-3:-3 / analyse=0x3:0x133 / me=umh / subme=9 / psy=1 / psy_rd=1.00:0.05 / mixed_ref=1 / me_range=16 / chroma_me=1 / trellis=2 / 8x8dct=1 / cqm=0 / deadzone=21,11 / fast_pskip=1 / chroma_qp_offset=-3 / threads=6 / sliced_threads=0 / nr=0 / decimate=1 / interlaced=0 / bluray_compat=0 / constrained_intra=0 / bframes=6 / b_pyramid=2 / b_adapt=2 / b_bias=0 / direct=3 / weightb=1 / open_gop=0 / weightp=2 / keyint=250 / keyint_min=23 / scenecut=40 / intra_refresh=0 / rc_lookahead=60 / rc=crf / mbtree=1 / crf=18.0 / qcomp=0.60 / qpmin=10 / qpmax=69 / qpstep=4 / vbv_maxrate=50000 / vbv_bufsize=50000 / crf_max=0.0 / nal_hrd=none / ip_ratio=1.40 / aq=1:0.80
Default : Да
Forced : Нет
Аудио #1
Идентификатор : 2
Формат : AC-3
Формат/Информация : Audio Coding 3
Расширение режима : CM (complete main)
Идентификатор кодека : A_AC3
Продолжительность : 1 ч. 41 м.
Вид битрейта : Постоянный
Битрейт : 448 Кбит/сек
Каналы : 6 каналов
Расположение каналов : Front: L C R, Side: L R, LFE
Частота : 48,0 КГц
Битовая глубина : 16 бит
Метод сжатия : С потерями
Задержка видео : 16 мс.
Размер потока : 324 Мбайт (3%)
Заголовок : VO-den904
Язык : Russian
Default : Да
Forced : Нет
Аудио #2
Идентификатор : 3
Формат : AC-3
Формат/Информация : Audio Coding 3
Расширение режима : CM (complete main)
Идентификатор кодека : A_AC3
Продолжительность : 1 ч. 41 м.
Вид битрейта : Постоянный
Битрейт : 640 Кбит/сек
Каналы : 6 каналов
Расположение каналов : Front: L C R, Side: L R, LFE
Частота : 48,0 КГц
Битовая глубина : 16 бит
Метод сжатия : С потерями
Задержка видео : 16 мс.
Размер потока : 463 Мбайт (5%)
Заголовок : DVO-"GREEN TEA" [pandora2177, mi24]
Язык : Russian
Default : Нет
Forced : Нет
Аудио #3
Идентификатор : 4
Формат : AC-3
Формат/Информация : Audio Coding 3
Расширение режима : CM (complete main)
Идентификатор кодека : A_AC3
Продолжительность : 1 ч. 41 м.
Вид битрейта : Постоянный
Битрейт : 640 Кбит/сек
Каналы : 6 каналов
Расположение каналов : Front: L C R, Side: L R, LFE
Частота : 48,0 КГц
Битовая глубина : 16 бит
Метод сжатия : С потерями
Задержка видео : 16 мс.
Размер потока : 463 Мбайт (5%)
Язык : Korean
Default : Нет
Forced : Нет
Текст
Идентификатор : 5
Формат : UTF-8
Идентификатор кодека : S_TEXT/UTF8
Идентификатор кодека/Информация : UTF-8 Plain Text
Заголовок : Октябрина, Сана
Язык : Russian
Default : Нет
Forced : Нет

[Цитировать]



Показать сообщения:    

Текущее время: 09-Дек 05:02

Часовой пояс: UTC + 3


Вы не можете начинать темы
Вы не можете отвечать на сообщения
Вы не можете редактировать свои сообщения
Вы не можете удалять свои сообщения
Вы не можете голосовать в опросах
Вы не можете прикреплять файлы к сообщениям
Вы не можете скачивать файлы

!ВНИМАНИЕ!
Сайт не предоставляет электронные версии произведений, а занимается лишь коллекционированием и каталогизацией ссылок, присылаемых и публикуемых на форуме нашими читателями. Если вы являетесь правообладателем какого-либо представленного материала и не желаете, чтобы ссылка на него находилась в нашем каталоге, свяжитесь с нами, и мы незамедлительно удалим ее. Файлы для обмена на трекере предоставлены пользователями сайта, и администрация не несет ответственности за их содержание. Просьба не заливать файлы, защищенные авторскими правами, а также файлы нелегального содержания!