[ Сегодня идет свободное скачивание без начисления Download ]


Статистика раздачи
Нет
 
   
 
Top  
 
 

Название: Повелитель стихий 3Д / The Last Airbender 3D
Год выпуска: 2010
Страна: США
Жанр: фэнтези, приключения, боевик
Продолжительность: 01:43:09
Перевод: Профессиональный (полное дублирование)
Субтитры: Нет
Режиссер:
М. Найт Шьямалан / M. Night Shyamalan
В ролях:
Ноа Рингер (Aang), Дев Патель (Prince Zuko), Никола Пельтц (Katara), Джексон Рэтбоун (Sokka), Шон Тоуб (Uncle Iroh), Аасиф Мандви (Commander Zhao), Клифф Кёртис (Fire Lord Ozai), Сейшелл Гэбриел (Princess Yue), Кэтрин Хотон (Katara's Grandma), Френсис Гуинан (Master Pakku), Дэймон Гаптон (Monk Gyatso), Саммер Бишил (Azula)
Описание:
Воздушные кочевники, Племя Воды, Царство Земли и Народ Огня. Четыре нации были связаны судьбой, когда Народ Огня начал жестокую войну против всех. Прошло сто лет без надежды что-то изменить в этом мире. Народ Огня почти близок к победе в войне. Оказавшись между борьбой и храбростью, юный Аанг понимает, что он — Аватар, обладающий силой повелевать четырьмя стихиями, и то, что только он может вернуть баланс и восстановить мир на земле. Вместе с юной повелительницей воды Катарой и её братом Соккой он отправляется в путешествие. Качество: BDrip
Контейнер: MKV
Формат 3D: Anamorph OverUnder / Вертикальная анаморфная стереопара
Видео кодек: x264
Аудио кодек: AC3
Видео: AVC, h264, 1920x1080, 23.976 кадр/сек, 8 Мбит/сек
Аудио 1: русский; AC3, 6 каналов, 640 Кбит/сек, 48,0 КГц
Аудио 2: украинский; AC3, 6 каналов, 448 Кбит/сек, 48,0 КГц
Аудио 3: английский; AC3, 6 каналов, 448 Кбит/сек, 48,0 КГц

СКРИНШОТЫ

MI


Общее
Уникальный идентификатор : 206519169016923697204229487523670561037 (0x9B5E2529DBE132B49E0A84F09914910D)
Полное имя : D:\3D-RuGroup\TheLastAirbender.2010.BD3DRip.Half.OU.x264.AC3.Rus.Ukr.Eng.El.mkv
Формат : Matroska
Версия формата : Version 2
Размер файла : 6,92 Гбайт
Продолжительность : 1 ч. 43 м.
Общий поток : 9598 Кбит/сек
Название фильма : TheLastAirbender.2010.BD3DRip.Half.OU.x264.AC3.Rus.Ukr.Eng.El
Дата кодирования : UTC 2012-02-04 09:23:04
Программа кодирования : mkvmerge v3.4.0 ('Rapunzel') сборка от May 15 2010 09:38:20
Библиотека кодирования : libebml v0.8.0 + libmatroska v0.9.0
Видео
Идентификатор : 1
Формат : AVC
Формат/Информация : Advanced Video Codec
Профиль формата : High@L4.1
Параметр CABAC формата : Да
Параметр ReFrames формата : 4 кадра
Идентификатор кодека : V_MPEG4/ISO/AVC
Продолжительность : 1 ч. 43 м.
Битрейт : 7871 Кбит/сек
Ширина : 1920 пикселей
Высота : 1080 пикселей
Соотношение сторон : 16:9
Частота кадров : 23,976 кадра/сек
Цветовое пространство : YUV
Субдискретизация насыщенности : 4:2:0
Битовая глубина : 8 бит
Тип развёртки : Прогрессивная
Бит/(Пиксели*Кадры) : 0.158
Размер потока : 5,68 Гбайт (82%)
Заголовок : LAST AIRBENDER by itsamna (aka elephant AnTo}{@)
Библиотека кодирования : x264 core 116 r2074 2641b9e
Настройки программы : cabac=1 / ref=4 / deblock=1:-3:-3 / analyse=0x3:0x133 / me=umh / subme=9 / psy=1 / psy_rd=1.00:0.15 / mixed_ref=1 / me_range=16 / chroma_me=1 / trellis=2 / 8x8dct=1 / cqm=0 / deadzone=21,11 / fast_pskip=1 / chroma_qp_offset=-3 / threads=3 / sliced_threads=0 / nr=0 / decimate=1 / interlaced=0 / bluray_compat=0 / constrained_intra=0 / bframes=6 / b_pyramid=2 / b_adapt=2 / b_bias=0 / direct=3 / weightb=1 / open_gop=0 / weightp=2 / keyint=250 / keyint_min=23 / scenecut=40 / intra_refresh=0 / rc_lookahead=60 / rc=crf / mbtree=1 / crf=17.5 / qcomp=0.60 / qpmin=10 / qpmax=69 / qpstep=4 / vbv_maxrate=50000 / vbv_bufsize=50000 / crf_max=0.0 / nal_hrd=none / ip_ratio=1.40 / aq=1:0.70
Default : Да
Forced : Нет
Аудио #1
Идентификатор : 2
Формат : AC-3
Формат/Информация : Audio Coding 3
Расширение режима : CM (complete main)
Идентификатор кодека : A_AC3
Продолжительность : 1 ч. 43 м.
Вид битрейта : Постоянный
Битрейт : 640 Кбит/сек
Каналы : 6 каналов
Расположение каналов : Front: L C R, Side: L R, LFE
Частота : 48,0 КГц
Битовая глубина : 16 бит
Метод сжатия : С потерями
Размер потока : 473 Мбайт (7%)
Заголовок : DUB AC3 5.1 640 Kbps
Язык : Russian
Default : Да
Forced : Нет
Аудио #2
Идентификатор : 3
Формат : AC-3
Формат/Информация : Audio Coding 3
Расширение режима : CM (complete main)
Идентификатор кодека : A_AC3
Продолжительность : 1 ч. 43 м.
Вид битрейта : Постоянный
Битрейт : 448 Кбит/сек
Каналы : 6 каналов
Расположение каналов : Front: L C R, Side: L R, LFE
Частота : 48,0 КГц
Битовая глубина : 16 бит
Метод сжатия : С потерями
Размер потока : 331 Мбайт (5%)
Заголовок : DUB AC3 5.1 448 Kbps
Язык : Ukrainian
Default : Нет
Forced : Нет
Аудио #3
Идентификатор : 4
Формат : AC-3
Формат/Информация : Audio Coding 3
Расширение режима : CM (complete main)
Идентификатор кодека : A_AC3
Продолжительность : 1 ч. 43 м.
Вид битрейта : Постоянный
Битрейт : 448 Кбит/сек
Каналы : 6 каналов
Расположение каналов : Front: L C R, Side: L R, LFE
Частота : 48,0 КГц
Битовая глубина : 16 бит
Метод сжатия : С потерями
Размер потока : 331 Мбайт (5%)
Заголовок : Original AC3 5.1 448 Kbps
Язык : English
Default : Нет
Forced : Нет
Меню
00:00:00.000 : :CHAPTER01
00:11:45.371 : :CHAPTER02
00:18:47.793 : :CHAPTER03
00:26:34.635 : :CHAPTER04
00:38:04.991 : :CHAPTER05
00:51:10.985 : :CHAPTER06
00:59:56.968 : :CHAPTER07
01:09:05.725 : :CHAPTER08
01:18:46.096 : :CHAPTER09
01:28:10.494 : :CHAPTER10
01:35:03.197 : :CHAPTER11

Знаете ли вы, что...

  • Первоначально фильм носил название «Аватар: Последний маг воздуха» ( Avatar: the Last Airbender). Однако задолго до начала работы над проектом Джеймс Кэмерон уже выкупил права на использование слова «Аватар».
  • Ноа Рингер, исполнитель роли Аанга, получил главную роль к фильму, пройдя интернет-кастинг. Он отправил видео со своим исполнением Тэквандо на DVD и был утвержден.
  • Ввиду того, что Ноа Рингеру 12 лет, ему запрещено проводить на съемочной площадке круглые сутки, создатели фильма прибегнули к трюку, взяв еще одного мальчика с похожим телосложением, поэтому в некоторых кадрах стоящего спиной Аанга будет исполнять некий Эрик Джуэл.
  • Режиссер целенаправленно сделал некоторых героев эпопеи старше с целью увеличения целевой аудитории фильма.
  • По сценарию комета Созина будет лететь 3 года, как и приблизительный срок кинотрилогии, а не один год как в мультсериале.
  • Актриса Джессика Джейд Андрес была выбрана на роль Суюки, лидера Воинов Киоши. Сцены с ее участием были сняты, но финальную версию фильма не вошли.
  • Певец и актер Джесси МакКартни должен был сыграть принца Зуко, однако не смог состыковать съемки фильма с гастрольным графиком.

[Цитировать]



Показать сообщения:    

Текущее время: 10-Дек 13:50

Часовой пояс: UTC + 3


Вы не можете начинать темы
Вы не можете отвечать на сообщения
Вы не можете редактировать свои сообщения
Вы не можете удалять свои сообщения
Вы не можете голосовать в опросах
Вы не можете прикреплять файлы к сообщениям
Вы не можете скачивать файлы

!ВНИМАНИЕ!
Сайт не предоставляет электронные версии произведений, а занимается лишь коллекционированием и каталогизацией ссылок, присылаемых и публикуемых на форуме нашими читателями. Если вы являетесь правообладателем какого-либо представленного материала и не желаете, чтобы ссылка на него находилась в нашем каталоге, свяжитесь с нами, и мы незамедлительно удалим ее. Файлы для обмена на трекере предоставлены пользователями сайта, и администрация не несет ответственности за их содержание. Просьба не заливать файлы, защищенные авторскими правами, а также файлы нелегального содержания!