[ Сегодня идет свободное скачивание без начисления Download ]


Статистика раздачи
Нет
 
   
 
Top  
 
 
Олдбой / Oldboy (Спайк Ли) [2013, триллер, драма, детектив, боевик, HDRip] DUB Год выпуска: 2013
Страна: США
Производство: 40 Acres & a Mule Filmworks, Good Universe, Vertigo Entertainment
Жанр: триллер, драма, детектив, боевик
Режиссёр: Спайк Ли
В ролях: Джош Бролин, Элизабет Олсен, Шарлто Копли, Сэмюэл Л. Джексон, Майкл Империоли, Пом Клементьефф, Джеймс Рэнсон, Макс Казелла, Линда Эмонд, Элвис Ноласко
Перевод: Дубляж
Субтитры: Отсутствуют
Описание: Фильм рассказывает о рекламщике, которого некто похитил и 20 лет продержал в одиночной камере, никак не объясняя своих мотивов. Столь же неожиданно получив однажды свободу, он решает разыскать того, кто организовал его похищение, и обнаруживает, что неизвестный злодей продолжает мучить его загадками. Погоня за местью приводит его к юной социальной работнице и некоему человеку, в руках которого якобы находится ключ к его спасению. Дата премьеры (мир): 11 ноября 2013
Дата премьеры (РФ): 28 ноября 2013, «Каравелла DDC»
Качество: HDRip
Продолжительность: 01:43:46
Формат: Avi
Видео кодек: XviD
Аудио кодек: AC-3
Видео: 720x304 (2.35:1), 23.976 fps, XviD ~1 553 kbps avg, 0.3 bit/pixel
Аудио: 48.0 KHz, AC-3, 6 ch, ~448 Kbps avg

MediaInfo

General
Complete name C: OldBoy.2013.D.HDRip.1.46.GB.avi
Format : AVI
Format/Info : Audio Video Interleave
File size : 1.46 GiB
Duration : 1h 43mn
Overall bit rate : 2 010 Kbps
Writing application : VirtualDubMod 1.5.10.2 (build 2540/release)
Writing library : VirtualDubMod build 2540/release
Video
ID : 0
Format : MPEG-4 Visual
Format profile : Advanced Simple@L5
Format settings, BVOP : 2
Format settings, QPel : No
Format settings, GMC : No warppoints
Format settings, Matrix : Default (MPEG)
Codec ID : XVID
Codec ID/Hint : XviD
Duration : 1h 43mn
Bit rate : 1 553 Kbps
Width : 720 pixels
Height : 304 pixels
Display aspect ratio : 2.35:1
Frame rate : 23.976 fps
Color space : YUV
Chroma subsampling : 4:2:0
Bit depth : 8 bits
Scan type : Progressive
Compression mode : Lossy
Bits/(Pixel*Frame) : 0.296
Stream size : 1.13 GiB (77%)
Writing library : XviD 1.2.1 (UTC 2008-12-04)
Audio
ID : 1
Format : AC-3
Format/Info : Audio Coding 3
Mode extension : CM (complete main)
Format settings, Endianness : Big
Codec ID : 2000
Duration : 1h 43mn
Bit rate mode : Constant
Bit rate : 448 Kbps
Channel count : 6 channels
Channel positions : Front: L C R, Side: L R, LFE
Sampling rate : 48.0 KHz
Bit depth : 16 bits
Compression mode : Lossy
Stream size : 333 MiB (22%)
Alignment : Split accross interleaves
Interleave, duration : 42 ms (1.00 video frame)
Interleave, preload duration : 500 ms

[Цитировать]

Топик был перенесен из форума Новинки кинопроката в форум Триллер
Henkok



Показать сообщения:    

Текущее время: 07-Дек 00:54

Часовой пояс: UTC + 3


Вы не можете начинать темы
Вы не можете отвечать на сообщения
Вы не можете редактировать свои сообщения
Вы не можете удалять свои сообщения
Вы не можете голосовать в опросах
Вы не можете прикреплять файлы к сообщениям
Вы не можете скачивать файлы

!ВНИМАНИЕ!
Сайт не предоставляет электронные версии произведений, а занимается лишь коллекционированием и каталогизацией ссылок, присылаемых и публикуемых на форуме нашими читателями. Если вы являетесь правообладателем какого-либо представленного материала и не желаете, чтобы ссылка на него находилась в нашем каталоге, свяжитесь с нами, и мы незамедлительно удалим ее. Файлы для обмена на трекере предоставлены пользователями сайта, и администрация не несет ответственности за их содержание. Просьба не заливать файлы, защищенные авторскими правами, а также файлы нелегального содержания!