[ Сегодня идет свободное скачивание без начисления Download ]


Статистика раздачи
Нет
 
   
 
Top  
 
 
Угнанный / Hijacked Год выпуска: 2012
Страна: США
Производство: NuttHouse Moving Pictures Company
Жанр: боевик, триллер
Режиссер: Брэндон Натт
В ролях: Доминик Пурселл, Винни Джонс, Джина Филипс, Рэнди Кутюр, Крэйг Фэйрбрасс, Тиффани Дюпон, Холт МакКэллани, Уилл Бейнбринк, Эшли Кусато, Джэй Хьюджули
Перевод: Профессиональный (многоголосый, закадровый) + Профессиональный (двухголосый) + Оригинал
Субтитры: Русские, Английские
Описание: Планы специального агента Росса по примирению с его экс-женой разрушаются, когда она поднимается на борт частного самолета, который является целью угонщиков. Росс следит за ними, и не имея времени для информирования своей команды и подвергая себя риску, он проникает на борт самолета для того, чтобы спасти любовь своей жизни…

Релиз от:
Качество: BDRip 1080p
Продолжительность: 01:30:16
Формат: MKV
Видео кодек: AVC [email protected]
Аудио кодек: AC3
Видео: 1920x1080p (16:9), 23.976 fps, AVC MPEG4 Video (H264), [email protected] ~ 11.1 Mbps, 0.222 bit/pixel
Аудио: Русский 48 kHz, (AC3), 6ch, ~ 384 kbps [Профессиональный (многоголосый, закадровый)
Аудио #2: Русский 48 kHz, (AC3), 6ch, ~ 448 kbps [Профессиональный (Двухголосый)]
Аудио #3: Английский 48 kHz, (AC3), 6ch, ~ 640 kbps [Оригинал]
Главы: Есть

Media Info

Общее
Уникальный идентификатор : 205823787639353239177754999701692780427 (0x9AD83836EE607F95BE5BF9F6ED708F8B)
Полное имя : F:\HD\Угнанный.2012.BDRip.(1080p).mkv
Формат : Matroska
Версия формата : Version 2
Размер файла : 8,06 Гбайт
Продолжительность : 1 ч. 30 м.
Общий поток : 12,8 Мбит/сек
Дата кодирования : UTC 2012-09-28 12:57:46
Программа кодирования : mkvmerge v5.8.0 ('No Sleep / Pillow') built on Sep 2 2012 15:37:04
Библиотека кодирования : libebml v1.2.3 + libmatroska v1.3.0
Видео
Идентификатор : 1
Формат : AVC
Формат/Информация : Advanced Video Codec
Профиль формата : [email protected]
Параметр CABAC формата : Да
Параметр ReFrames формата : 4 кадра
Идентификатор кодека : V_MPEG4/ISO/AVC
Битрейт : 11,1 Мбит/сек
Ширина : 1920 пикселей
Высота : 1080 пикселей
Соотношение сторон : 16:9
Режим частоты кадров : Переменный
Частота кадров в оригинале : 23,976 кадра/сек
Цветовое пространство : YUV
Субдискретизация насыщенности : 4:2:0
Битовая глубина : 8 бит
Тип развёртки : Прогрессивная
Заголовок : Hijacked.2012.1080p.BluRay.AC3.x264-CtrlHD
Библиотека кодирования : x264 core 125 r2200kMod 999b753
Настройки программы : cabac=1 / ref=4 / deblock=1:-3:-3 / analyse=0x3:0x113 / me=umh / subme=11 / psy=1 / fade_compensate=0.00 / psy_rd=1.10:0.00 / mixed_ref=1 / me_range=16 / chroma_me=1 / trellis=2 / 8x8dct=1 / cqm=0 / deadzone=21,11 / fast_pskip=0 / chroma_qp_offset=-2 / threads=6 / lookahead_threads=1 / sliced_threads=0 / nr=0 / decimate=0 / interlaced=0 / bluray_compat=0 / constrained_intra=0 / bframes=8 / b_pyramid=2 / b_adapt=2 / b_bias=0 / direct=3 / weightb=1 / open_gop=0 / weightp=2 / keyint=250 / keyint_min=23 / scenecut=40 / intra_refresh=0 / rc=crf / mbtree=0 / crf=18.0000 / qcomp=0.75 / qpmin=0 / qpmax=69 / qpstep=4 / ip_ratio=1.30 / pb_ratio=1.20 / aq=1:0.90
Язык : English
Default : Нет
Forced : Нет
Аудио #1
Идентификатор : 2
Формат : AC-3
Формат/Информация : Audio Coding 3
Расширение режима : CM (complete main)
Параметр Endianness формата : Big
Идентификатор кодека : A_AC3
Продолжительность : 1 ч. 30 м.
Вид битрейта : Постоянный
Битрейт : 384 Кбит/сек
Каналы : 6 каналов
Расположение каналов : Front: L C R, Side: L R, LFE
Частота : 48,0 КГц
Битовая глубина : 16 бит
Метод сжатия : С потерями
Размер потока : 248 Мбайт (3%)
Заголовок : DD 5.1 @ 384 kbps - MVO, R5
Язык : Russian
Default : Да
Forced : Нет
Аудио #2
Идентификатор : 3
Формат : AC-3
Формат/Информация : Audio Coding 3
Расширение режима : CM (complete main)
Параметр Endianness формата : Big
Идентификатор кодека : A_AC3
Продолжительность : 1 ч. 30 м.
Вид битрейта : Постоянный
Битрейт : 448 Кбит/сек
Каналы : 6 каналов
Расположение каналов : Front: L C R, Side: L R, LFE
Частота : 48,0 КГц
Битовая глубина : 16 бит
Метод сжатия : С потерями
Размер потока : 289 Мбайт (4%)
Заголовок : den904 & DeadSno
Язык : Russian
Default : Нет
Forced : Нет
Аудио #3
Идентификатор : 4
Формат : AC-3
Формат/Информация : Audio Coding 3
Расширение режима : CM (complete main)
Параметр Endianness формата : Big
Идентификатор кодека : A_AC3
Продолжительность : 1 ч. 30 м.
Вид битрейта : Постоянный
Битрейт : 640 Кбит/сек
Каналы : 6 каналов
Расположение каналов : Front: L C R, Side: L R, LFE
Частота : 48,0 КГц
Битовая глубина : 16 бит
Метод сжатия : С потерями
Размер потока : 413 Мбайт (5%)
Язык : English
Default : Нет
Forced : Нет
Текст #1
Идентификатор : 5
Формат : UTF-8
Идентификатор кодека : S_TEXT/UTF8
Идентификатор кодека/Информация : UTF-8 Plain Text
Язык : Russian
Default : Нет
Forced : Нет
Текст #2
Идентификатор : 6
Формат : UTF-8
Идентификатор кодека : S_TEXT/UTF8
Идентификатор кодека/Информация : UTF-8 Plain Text
Язык : English
Default : Нет
Forced : Нет
Меню
00:00:00.000 : en:Chapter 1
00:03:44.975 : en:Chapter 2
00:14:41.422 : en:Chapter 3
00:22:35.271 : en:Chapter 4
00:33:14.534 : en:Chapter 5
00:37:50.518 : en:Chapter 6
00:45:48.913 : en:Chapter 7
00:52:12.296 : en:Chapter 8
00:59:39.159 : en:Chapter 9
01:09:22.492 : en:Chapter 10
01:15:54.258 : en:Chapter 11
01:26:04.785 : en:Chapter 12

Скриншоты

[Цитировать]

Топик был перенесен из форума Новинки кинопроката (HD Video) в форум Зарубежное кино (HD Video)
Bootch



Показать сообщения:    

Текущее время: 04-Дек 19:17

Часовой пояс: UTC + 3


Вы не можете начинать темы
Вы не можете отвечать на сообщения
Вы не можете редактировать свои сообщения
Вы не можете удалять свои сообщения
Вы не можете голосовать в опросах
Вы не можете прикреплять файлы к сообщениям
Вы не можете скачивать файлы

!ВНИМАНИЕ!
Сайт не предоставляет электронные версии произведений, а занимается лишь коллекционированием и каталогизацией ссылок, присылаемых и публикуемых на форуме нашими читателями. Если вы являетесь правообладателем какого-либо представленного материала и не желаете, чтобы ссылка на него находилась в нашем каталоге, свяжитесь с нами, и мы незамедлительно удалим ее. Файлы для обмена на трекере предоставлены пользователями сайта, и администрация не несет ответственности за их содержание. Просьба не заливать файлы, защищенные авторскими правами, а также файлы нелегального содержания!