[ Сегодня идет свободное скачивание без начисления Download ]


Статистика раздачи
Нет
 
   
 
Top  
 
 
-Пуля / Bullet (2014) BDRip- Год выпуска: 2014
Производство: США | Giant Ape Media, SC Films International
Перевод: Одноголосый закадровый, любительский
Озвучка / Автор перевода: qwerty
Субтитры: Вшитые отключаемые
Язык субтитров: Английский (Full, SDH, SDH-Colored)-Дата мировой премьеры: 7 марта 2014
Дата российской премьеры: 29 мая 2014, «All Media»-Режиссер: Ник Лион-Продюсер: Мэттью Джойнс, Ник Лион, Роберт Родригез-Актеры: Дэнни Трехо, Торстен Фогс, Джонатан Бэнкс, Кайл Вильяловос, Ив Мауро, Шери ДеЯнг, Эрик Блоссом, Джералд Уэбб, Тинсел Кори, Эрик Этебари-Описание фильма:
Пуля — это прозвище бескомпромиссного и жестокого полицейского, для которого борьба с преступностью является смыслом его жизни. В один ужасный день мафия похищает его внука, сама того не понимая какие неприятности на себя навлекая. Пуля берет закон в свои руки и начинает вершить правосудие без суда и следствия.-
Продолжительность: 01:27:16
Качество видео: BDRip 720p [PHD]
Видеокодек: MPEG-4 AVC/H.264
Битрейт видео: ~ 5504 Кбит/сек
Размер кадра: 1280 x 546 (2.344) at 23.976 fps : 0.328 Bits/Pixel
Аудио #1: AC3 256 Кбит/сек (2ch), 44,1 КГц, 16 бит [Русский, VO qwerty]
Аудио #2: DTS 1510 Кбит/сек (6ch), 48,0 КГц, 24 бит [Английский]
Дополнительно: Сохранены оригинальные чаптеры как на Blu-ray

MediaInfo:

Уникальный идентификатор                 : 172353559479950891286129950567328239451 (0x81AA168F30D077DE8316EF92628DCF5B)
Полное имя                               : H:\Bullet.2014.L1.BDRip.720p.mkv
Формат                                   : Matroska
Версия формата                           : Version 2
Размер файла                             : 4,52 Гбайт
Продолжительность                        : 1 ч. 27 м.
Общий поток                              : 7417 Кбит/сек
Название фильма                          : Bullet.2014.720p.BluRay.DTS.x264-PHD
Дата кодирования                         : UTC 2014-02-24 01:53:14
Программа кодирования                    : mkvmerge v2.9.9 ('Tutu') built on Nov 25 2009 21:13:32
Библиотека кодирования                   : libebml v0.7.9 + libmatroska v0.8.1
Видео
Идентификатор                            : 1
Формат                                   : AVC
Формат/Информация                        : Advanced Video Codec
Профиль формата                          : [url=mailto:High@L4.1]High@L4.1[/url]
Параметр CABAC формата                   : Да
Параметр ReFrames формата                : 5 кадров
Идентификатор кодека                     : V_MPEG4/ISO/AVC
Продолжительность                        : 1 ч. 27 м.
Битрейт                                  : 5504 Кбит/сек
Ширина                                   : 1280 пикселей
Высота                                   : 546 пикселей
Соотношение сторон                       : 2,35:1
Режим частоты кадров                     : Постоянный
Частота кадров                           : 23,976 кадра/сек
Цветовое пространство                    : YUV
Субдискретизация насыщенности            : 4:2:0
Битовая глубина                          : 8 бит
Тип развёртки                            : Прогрессивная
Бит/(Пиксели*Кадры)                      : 0.328
Размер потока                            : 3,36 Гбайт (74%)
Язык                                     : English
Default                                  : Нет
Forced                                   : Нет
Аудио #1
Идентификатор                            : 2
Формат                                   : AC-3
Формат/Информация                        : Audio Coding 3
Расширение режима                        : CM (complete main)
Параметр Endianness формата              : Big
Идентификатор кодека                     : A_AC3
Продолжительность                        : 1 ч. 27 м.
Вид битрейта                             : Постоянный
Битрейт                                  : 256 Кбит/сек
Каналы                                   : 2 канала
Расположение каналов                     : Front: L R
Частота                                  : 44,1 КГц
Битовая глубина                          : 16 бит
Метод сжатия                             : С потерями
Размер потока                            : 160 Мбайт (3%)
Заголовок                                : AC3.256.Kbps (2ch) Russian (VO qwerty)
Язык                                     : Russian
Default                                  : Да
Forced                                   : Нет
Аудио #2
Идентификатор                            : 3
Формат                                   : DTS
Формат/Информация                        : Digital Theater Systems
Режим                                    : 16
Параметр Endianness формата              : Big
Идентификатор кодека                     : A_DTS
Продолжительность                        : 1 ч. 27 м.
Вид битрейта                             : Постоянный
Битрейт                                  : 1510 Кбит/сек
Каналы                                   : 6 каналов
Расположение каналов                     : Front: L C R, Side: L R, LFE
Частота                                  : 48,0 КГц
Битовая глубина                          : 24 бит
Метод сжатия                             : С потерями
Задержка видео                           : 11 мс.
Размер потока                            : 942 Мбайт (20%)
Заголовок                                : DTS.1509.Kbps (6ch) English
Язык                                     : English
Default                                  : Нет
Forced                                   : Нет
Текст #1
Идентификатор                            : 4
Формат                                   : UTF-8
Идентификатор кодека                     : S_TEXT/UTF8
Идентификатор кодека/Информация          : UTF-8 Plain Text
Заголовок                                : English (Full)
Язык                                     : English
Default                                  : Нет
Forced                                   : Нет
Текст #2
Идентификатор                            : 5
Формат                                   : UTF-8
Идентификатор кодека                     : S_TEXT/UTF8
Идентификатор кодека/Информация          : UTF-8 Plain Text
Заголовок                                : English (SDH)
Язык                                     : English
Default                                  : Нет
Forced                                   : Нет
Текст #3
Идентификатор                            : 6
Формат                                   : UTF-8
Идентификатор кодека                     : S_TEXT/UTF8
Идентификатор кодека/Информация          : UTF-8 Plain Text
Заголовок                                : English (SDH-Colored)
Язык                                     : English
Default                                  : Нет
Forced                                   : Нет
Меню
00:00:00.000                             : en:00:00:00.000
00:06:15.625                             : en:00:06:15.625
00:11:31.524                             : en:00:11:31.524
00:14:13.603                             : en:00:14:13.603
00:17:44.647                             : en:00:17:44.647
00:22:35.521                             : en:00:22:35.521
00:27:37.656                             : en:00:27:37.656
00:32:33.118                             : en:00:32:33.118
00:38:37.148                             : en:00:38:37.148
00:45:01.657                             : en:00:45:01.657
00:50:12.092                             : en:00:50:12.092
00:53:54.523                             : en:00:53:54.523
00:58:18.453                             : en:00:58:18.453
01:02:21.738                             : en:01:02:21.738
01:06:54.135                             : en:01:06:54.135
01:11:02.258                             : en:01:11:02.258
01:15:43.664                             : en:01:15:43.664
01:21:14.036                             : en:01:21:14.036

Скриншоты:




-Время раздачи: 24/7 (до 10 скачавших)

[Цитировать]



Показать сообщения:    

Текущее время: 09-Дек 22:27

Часовой пояс: UTC + 3


Вы не можете начинать темы
Вы не можете отвечать на сообщения
Вы не можете редактировать свои сообщения
Вы не можете удалять свои сообщения
Вы не можете голосовать в опросах
Вы не можете прикреплять файлы к сообщениям
Вы не можете скачивать файлы

!ВНИМАНИЕ!
Сайт не предоставляет электронные версии произведений, а занимается лишь коллекционированием и каталогизацией ссылок, присылаемых и публикуемых на форуме нашими читателями. Если вы являетесь правообладателем какого-либо представленного материала и не желаете, чтобы ссылка на него находилась в нашем каталоге, свяжитесь с нами, и мы незамедлительно удалим ее. Файлы для обмена на трекере предоставлены пользователями сайта, и администрация не несет ответственности за их содержание. Просьба не заливать файлы, защищенные авторскими правами, а также файлы нелегального содержания!