[ Сегодня идет свободное скачивание без начисления Download ]


Статистика раздачи
Нет
 
   
 
Top  
 
 
-Колония / The Colony (2013) HDRip- Год выпуска: 2013
Производство: Канада
Жанр: Фантастика, Ужасы, Боевик
Перевод: Дублированный (лицензия)
Дата мировой премьеры: 26 апреля 2013
Дата российской премьеры: 16 января 2014
Дата выхода DVD релиза: 20 февраля 2014
Режиссер: Джефф Ренфро
Продюсер: Пол Баркин, Мэттью Керви, Пьер Ивен
Актеры: Лоренс Фишбёрн, Кевин Зегерс, Билл Пэкстон, Шарлотта Салливан, Джон Тенч, Аттикус Дин Митчелл, Дрю Вигевер, Романо Орзари, Эрл Паско, Лиза Берри
Описание фильма:
После природного катаклизма, под ледяной поверхностью, покрывшей Землю, оставшиеся в живых люди собрались в Колонию 7 и пытаются выжить несмотря на сокращающиеся запасы продовольствия. Они еще поддерживают связь с Колонией 5, но после того, как контакт с ними теряется, группа смельчаков отправляется в опасную экспедицию, чтобы выяснить, что произошло с их соседями. Преодолев тяжелейший путь герои сталкиваются с опасностью во много раз превосходящую природную угрозу холода…

Продолжительность: 01:34:26
Качество видео: HDRip
Видеокодек: Xvid
Битрейт видео: ~971 kb/s
Размер кадра: 640x272
Аудиокодек: MP3, 2 ch
Битрейт аудио: 128 kb/s
Сэмпл: Скачать

MediaInfo

Общее
Полное имя : D:\The Colony.avi
Формат : AVI
Формат/Информация : Audio Video Interleave
Размер файла : 748 Мбайт
Продолжительность : 1 ч. 34 м.
Общий поток : 1108 Кбит/сек
Программа кодирования : VirtualDubMod 1.5.10.3 | www.virtualdub-fr.org || (build 2550/release)
Библиотека кодирования : VirtualDubMod build 2550/release
Видео
Идентификатор : 0
Формат : MPEG-4 Visual
Профиль формата : Advanced Simple@L5
Параметр BVOP формата : 1
Параметр QPel формата : Нет
Параметр GMC формата : Без точки перехода
Параметр матрицы формата : Выборочная
Идентификатор кодека : XVID
Идентификатор кодека/Подсказка : XviD
Продолжительность : 1 ч. 34 м.
Битрейт : 971 Кбит/сек
Ширина : 640 пикселей
Высота : 272 пикселя
Соотношение сторон : 2,35:1
Частота кадров : 23,976 кадра/сек
Цветовое пространство : YUV
Субдискретизация насыщенности : 4:2:0
Битовая глубина : 8 бит
Тип развёртки : Прогрессивная
Метод сжатия : С потерями
Бит/(Пиксели*Кадры) : 0.233
Размер потока : 656 Мбайт (88%)
Библиотека кодирования : XviD 65
Аудио
Идентификатор : 1
Формат : MPEG Audio
Версия формата : Version 1
Профиль формата : Layer 3
Идентификатор кодека : 55
Идентификатор кодека/Подсказка : MP3
Продолжительность : 1 ч. 34 м.
Вид битрейта : Постоянный
Битрейт : 128 Кбит/сек
Каналы : 2 канала
Частота : 48,0 КГц
Метод сжатия : С потерями
Размер потока : 86,5 Мбайт (12%)
Выравнивание : Соединение по промежуткам
Продолжительность промежутка : 42 мс. (1,00 видеокадр)
Время предзагрузки промежутка : 504 мс.
Библиотека кодирования : LAME3.99r
Настройки программы : -m s -V 4 -q 0 -lowpass 17 -b 128

Скриншоты:

Время раздачи: с 20:00 до 02:00

[Цитировать]



Показать сообщения:    

Текущее время: 07-Дек 11:42

Часовой пояс: UTC + 3


Вы не можете начинать темы
Вы не можете отвечать на сообщения
Вы не можете редактировать свои сообщения
Вы не можете удалять свои сообщения
Вы не можете голосовать в опросах
Вы не можете прикреплять файлы к сообщениям
Вы не можете скачивать файлы

!ВНИМАНИЕ!
Сайт не предоставляет электронные версии произведений, а занимается лишь коллекционированием и каталогизацией ссылок, присылаемых и публикуемых на форуме нашими читателями. Если вы являетесь правообладателем какого-либо представленного материала и не желаете, чтобы ссылка на него находилась в нашем каталоге, свяжитесь с нами, и мы незамедлительно удалим ее. Файлы для обмена на трекере предоставлены пользователями сайта, и администрация не несет ответственности за их содержание. Просьба не заливать файлы, защищенные авторскими правами, а также файлы нелегального содержания!