[ Сегодня идет свободное скачивание без начисления Download ]


Статистика раздачи
Нет
 
   
 
Top  
 
 
-Роман с кокаином (2013) DVD9- Год выпуска: 2013
Производство: Россия
Жанр: Драма
Перевод: Не требуется (Русский)
Субтитры: Отсутствуют
Режиссер: Геннадий Сидоров
Актеры: Игорь Триф, Ксения Собчак, Кирилл Плетнёв, Владимир Яглыч, Галина Звягинцева, Наталья Коляканова, Янис Политов, Валентина Березуцкая, Геннадий Сидоров, Далер Маджидов
Описание фильма:
Вадим Масленников, главный герой кинокартины, — наш современник. Такой же как мы, вернее, как многие из нас. Чей то сын, чей-то друг, чей-то враг, чей-то любимый… А правильно ли он живет? А как нужно жить? Так, чтобы след на земле для потомков оставить? И не в буквальном смысле землю нашу топтать, а чтобы прожить достойно и самое дорогое не растерять. А нужно ли это вообще? А главное — кому нужно? Череда извечных вопросов: важных, насущных и очень простых — терзают его мысли, соблазны рвут его душу. Он пытается найти ответы, но попадает в круговорот непонимания, жестокости, безразличия, разочарования и насилия. Насилия над самим собой, над собственным Я.
Дата российской премьеры: 16 января 2014, «Alti Films»
Дата выхода DVD релиза: 20 февраля 2014, «CD Land»

Продолжительность: 01:40:58
Качество видео: DVD9
Видеокодек: MPEG-2
Битрейт видео: ~7030 kbps
Размер кадра: PAL 16:9 (720x576@1024х576)
Аудио: AC3, 6 ch, 448 kbps (Русский)
Дополнительно: Фильм о фильме, Геннадий Сидоров: Монолог

MediaInfo:

Общее
Полное имя : Roman.s.kokainom.2013.DVD9\VIDEO_TS\VTS_02_2.VOB
Формат : MPEG-PS
Размер файла : 1024 Мбайт
Продолжительность : 18 м.
Режим общего битрейта : Переменный
Общий поток : 7630 Кбит/сек
Видео
Идентификатор : 224 (0xE0)
Формат : MPEG Video
Версия формата : Version 2
Профиль формата : Main@Main
Параметр BVOP формата : Да
Параметр матрицы формата : По умолчанию
Параметр GOP формата : M=3, N=12
Продолжительность : 18 м.
Вид битрейта : Переменный
Битрейт : 7030 Кбит/сек
Максимальный битрейт : 8000 Кбит/сек
Ширина : 720 пикселей
Высота : 576 пикселей
Соотношение сторон : 16:9
Частота кадров : 25,000 кадров/сек
Стандарт вещания : PAL
Цветовое пространство : YUV
Субдискретизация насыщенности : 4:2:0
Битовая глубина : 8 бит
Тип развёртки : Прогрессивная
Метод сжатия : С потерями
Бит/(Пиксели*Кадры) : 0.678
TimeCode_FirstFrame : 00:18:58:12
TimeCode_Source : Group of pictures header
Размер потока : 943 Мбайт (92%)
Аудио
Идентификатор : 189 (0xBD)-128 (0x80)
Формат : AC-3
Формат/Информация : Audio Coding 3
Расширение режима : CM (complete main)
Параметр Endianness формата : Big
Режим смешивания : DVD-Video
Продолжительность : 18 м.
Вид битрейта : Постоянный
Битрейт : 448 Кбит/сек
Каналы : 6 каналов
Расположение каналов : Front: L C R, Side: L R, LFE
Частота : 48,0 КГц
Битовая глубина : 16 бит
Метод сжатия : С потерями
Задержка видео : -448 мс.
Размер потока : 60,1 Мбайт (6%)
Меню

DVDInfo:

Title: Roman.s.kokainom.2013.DVD9
Size: 6.64 Gb ( 6 963 210,00 KBytes ) - DVD-9
Enabled regions: 1, 2, 3, 4, 5, 6, 7, 8
VTS_01 :
Play Length: 00:00:19
Video: PAL 4:3 (720x576) VBR
Audio:
Not specified (Dolby AC3, 2 ch)
VTS_02 :
Play Length: 01:40:58
Video: PAL 16:9 (720x576) VBR, Auto Letterboxed
Audio:
Russian (Dolby AC3, 6 ch)
VTS_03 :
Play Length: 00:24:36
Video: PAL 16:9 (720x576) VBR, Auto Letterboxed
Audio:
Russian (Dolby AC3, 2 ch)
VTS_04 :
Play Length: 00:04:38
Video: PAL 16:9 (720x576) VBR, Auto Letterboxed
Audio:
Russian (Dolby AC3, 2 ch)
* Menus Information *
VIDEO_TS Menu
Video:
PAL 16:9 (720x576) VBR
Auto Pan&Scan, Auto Letterboxed
English Language Unit :
Title Menu
VTS_01 Menu
Video:
PAL 16:9 (720x576) VBR
Auto Letterboxed
Audio:
Not specified (Dolby AC3, 2 ch)
English Language Unit :
Root Menu
VTS_02 Menu
Video:
PAL 4:3 (720x576) VBR
English Language Unit :
Root Menu
VTS_03 Menu
Video:
PAL 4:3 (720x576) VBR
English Language Unit :
Root Menu
VTS_04 Menu
Video:
PAL 4:3 (720x576) VBR
English Language Unit :
Root Menu

Меню DVD:

Скриншоты:


Время раздачи: Обычно с 19:00 до 00:00

[Цитировать]



Показать сообщения:    

Текущее время: 16-Янв 13:55

Часовой пояс: UTC + 3


Вы не можете начинать темы
Вы не можете отвечать на сообщения
Вы не можете редактировать свои сообщения
Вы не можете удалять свои сообщения
Вы не можете голосовать в опросах
Вы не можете прикреплять файлы к сообщениям
Вы не можете скачивать файлы

!ВНИМАНИЕ!
Сайт не предоставляет электронные версии произведений, а занимается лишь коллекционированием и каталогизацией ссылок, присылаемых и публикуемых на форуме нашими читателями. Если вы являетесь правообладателем какого-либо представленного материала и не желаете, чтобы ссылка на него находилась в нашем каталоге, свяжитесь с нами, и мы незамедлительно удалим ее. Файлы для обмена на трекере предоставлены пользователями сайта, и администрация не несет ответственности за их содержание. Просьба не заливать файлы, защищенные авторскими правами, а также файлы нелегального содержания!