[ Сегодня идет свободное скачивание без начисления Download ]


Статистика раздачи
Нет
 
   
 
 
 
- Олимпийские игры 2014. Церемония закрытия (2014.02.23) HDTV [H.264/1080i] [HD FEED] - Русское название: Олимпийские игры 2014
Год выпуска: 2014
Жанр: Спорт
Выпущено: Россия
Описание:
XXII Олимпийские зимние игры 2014 года в Сочи завершатся сегодня Церемонией закрытия на Олимпийском стадионе «Фишт». Церемония представит яркое и эмоциональное завершение Игр и станет посвящением русской культуре. Зрители увидят Россию глазами европейца – признанного во всем мире режиссера Даниэле Финци Паска, который присоединился к команде российских профессионалов в качестве режиссера-постановщика Церемонии закрытия Олимпийских игр в Сочи. Главным креативным директором Церемонии закрытия стал Константин Эрнст, Исполнительным продюсером Церемонии - Андрей Насоновский. Зрители Церемонии закрытия Олимпийских зимних игр 2014 года вновь встретятся с уже знакомой им по Церемонии открытия девочкой Любовь, которая вместе со своими новыми друзьями, Валентиной и Юрой, будет путешествовать через русскую культуру – переворачивать страницы русской литературы, наслаждаться волшебством русской живописи и внимать чудесным звукам русской музыки. По традиции, часть Церемонии закрытия будет посвящена торжественной церемонии передачи Олимпийского флага столице будущих зимних Игр - городу Пхёнчхан
Ведущие: Интершум – естественный шум съемочной площадки
Продолжительность: 03:04:57
Видеокодек: AVC (MPEG-TS)
Качество видео: HDTV
Битрейт видео: ~27,6 Мбит/сек
Размер кадра: 1920 x 1080
Аудио 1: MP2, 2.0ch., 384 kb/s - шум арены
Аудио 2-4: MP2, 2.0ch., 384 kb/s (5.0 разбито на 3 стерео дорожки) - шум арены
Битрейт аудио:

MediaInfo:

Формат : MPEG-TS
Размер файла : 39,6 Гбайт
Продолжительность : 3 ч. 4 м.
Общий поток : 30,7 Мбит/сек
Видео
Идентификатор : 301 (0x12D)
Идентификатор меню : 1 (0x1)
Формат : AVC
Формат/Информация : Advanced Video Codec
Профиль формата : High@L4.1
Параметр CABAC формата : Да
Параметр ReFrames формата : 4 кадра
Идентификатор кодека : 27
Продолжительность : 3 ч. 4 м.
Битрейт : 27,6 Мбит/сек
Ширина : 1920 пикселей
Высота : 1080 пикселей
Соотношение сторон : 16:9
Частота кадров : 25,000 кадров/сек
Цветовое пространство : YUV
Субдискретизация насыщенности : 4:2:0
Битовая глубина : 8 бит
Тип развёртки : Чересстрочная
Порядок развёртки : Верхнее поле первое
Бит/(Пиксели*Кадры) : 0.533
Размер потока : 35,7 Гбайт (90%)
Основные цвета : BT.709-5, BT.1361, IEC 61966-2-4, SMPTE RP177
Характеристики трансфера : BT.709-5, BT.1361
Коэффициенты матрицы : BT.709-5, BT.1361, IEC 61966-2-4 709, SMPTE RP177
Аудио #1
Идентификатор : 256 (0x100)
Идентификатор меню : 1 (0x1)
Формат : MPEG Audio
Версия формата : Version 1
Профиль формата : Layer 2
Режим : Dual mono
Идентификатор кодека : 4
Продолжительность : 3 ч. 4 м.
Вид битрейта : Постоянный
Битрейт : 384 Кбит/сек
Каналы : 2 канала
Частота : 48,0 КГц
Метод сжатия : С потерями
Задержка видео : -159 мс.
Размер потока : 508 Мбайт (1%)
Язык : Italian
Аудио #2
Идентификатор : 257 (0x101)
Идентификатор меню : 1 (0x1)
Формат : MPEG Audio
Версия формата : Version 1
Профиль формата : Layer 2
Режим : Dual mono
Идентификатор кодека : 4
Продолжительность : 3 ч. 4 м.
Вид битрейта : Постоянный
Битрейт : 384 Кбит/сек
Каналы : 2 канала
Частота : 48,0 КГц
Метод сжатия : С потерями
Задержка видео : -159 мс.
Размер потока : 508 Мбайт (1%)
Язык : English
Аудио #3
Идентификатор : 258 (0x102)
Идентификатор меню : 1 (0x1)
Формат : MPEG Audio
Версия формата : Version 1
Профиль формата : Layer 2
Режим : Dual mono
Идентификатор кодека : 4
Продолжительность : 3 ч. 4 м.
Вид битрейта : Постоянный
Битрейт : 384 Кбит/сек
Каналы : 2 канала
Частота : 48,0 КГц
Метод сжатия : С потерями
Задержка видео : -159 мс.
Размер потока : 508 Мбайт (1%)
Язык : English
Аудио #4
Идентификатор : 259 (0x103)
Идентификатор меню : 1 (0x1)
Формат : MPEG Audio
Версия формата : Version 1
Профиль формата : Layer 2
Режим : Dual mono
Идентификатор кодека : 4
Продолжительность : 3 ч. 4 м.
Вид битрейта : Постоянный
Битрейт : 384 Кбит/сек
Каналы : 2 канала
Частота : 48,0 КГц
Метод сжатия : С потерями
Задержка видео : -159 мс.
Размер потока : 508 Мбайт (1%)
Язык : English
Меню
Идентификатор : 32 (0x20)
Идентификатор меню : 1 (0x1)
Продолжительность : 3 ч. 4 м.
Список : 256 (0x100) (MPEG Audio, Italian) / 257 (0x101) (MPEG Audio, English) / 258 (0x102) (MPEG Audio, English) / 259 (0x103) (MPEG Audio, English) / 301 (0x12D) (AVC)
Язык : Italian / English / English / English
Максимальный битрейт : 200000000
Скриншоты:

[Цитировать]



Показать сообщения:    

Текущее время: 08-Дек 10:53

Часовой пояс: UTC + 3


Вы не можете начинать темы
Вы не можете отвечать на сообщения
Вы не можете редактировать свои сообщения
Вы не можете удалять свои сообщения
Вы не можете голосовать в опросах
Вы не можете прикреплять файлы к сообщениям
Вы не можете скачивать файлы

!ВНИМАНИЕ!
Сайт не предоставляет электронные версии произведений, а занимается лишь коллекционированием и каталогизацией ссылок, присылаемых и публикуемых на форуме нашими читателями. Если вы являетесь правообладателем какого-либо представленного материала и не желаете, чтобы ссылка на него находилась в нашем каталоге, свяжитесь с нами, и мы незамедлительно удалим ее. Файлы для обмена на трекере предоставлены пользователями сайта, и администрация не несет ответственности за их содержание. Просьба не заливать файлы, защищенные авторскими правами, а также файлы нелегального содержания!