[ Сегодня идет свободное скачивание без начисления Download ]


Статистика раздачи
Нет
 
   
 
Top  
 
 
-Первопроходец / Pioneer (2013) HDRip- Год выпуска: 2013
Производство: Норвегия, Германия, Швеция, Франция, Финляндия
Жанр: Триллер
Перевод: Одноголосый закадровый, любительский [datynet]
Субтитры: Вшитые отключаемые
Язык субтитров: Английский, Норвежский-Дата мировой премьеры: 30 августа 2013 (Норвегия)-Режиссер: Эрик Шёлдбьерг-Продюсер: Лоне Корслунд, Кристиан Фредрик Мартин, Асле Ватн-Актеры: Уэс Бентли, Стивен Лэнг, Аксель Хенни, Джонатан ЛаПалья, Стефани Сигман, Ёрген Лангхелле, Эни Даль Торп, Андре Эриксен, Эндре Хеллествейт, Арни Линдтнер Нэсс ...-Описание фильма:
Начало 1980-х гг. В Северном море обнаружены огромные запасы нефти и газа. В начале норвежского нефтяного бума власти намерены любой ценой доставлять на берег «черное» и «голубое золото» планеты по трубопроводу с глубины 500 метров, перед этим проводя разведку месторождения. Профессиональный дайвер Петтер, одержимый идеей достижения дна Норвежского моря, — полон решимости, силы и мужества, чтобы браться за самую опасную в мире работу и спуститься на эту глубину. Но неожиданная случайность меняет все. И теперь Петтер отправляется в опасное путешествие, в котором он теряет из вида того, кто дергает за ниточки в этой многомиллионной игре, постепенно понимая, что он оказывается на его пути и что его жизнь находится под угрозой.-
Продолжительность: 01:51:14
Качество видео: HDRip
Видеокодек: MPEG-4 AVC/H.264
Битрейт видео: ~ 2039 Кбит/сек
Размер кадра: 1024 x 426 (2.404) at 24.000 fps : 0.195 Bits/Pixel
Аудио #1: AC3 384 Кбит/сек (6ch), 48,0 КГц, 16 бит [Русский, VO datynet]
Аудио #2: AC3 384 Кбит/сек (6ch), 48,0 КГц, 16 бит [Норвежский]
Дополнительно: Сохранены оригинальные чаптеры как на Blu-ray
Релиз:

Трейлер / Ролик

[youtube]http://www.youtube.com/v/27FcTIbOelY&fs=1[/youtube]

MediaInfo:

Уникальный идентификатор                 : 184225448035503185279400636075469345739 (0x8A9887DB3B877E638DF6EAA1B12A93CB)
Полное имя                               : G:\Pioneer.2013.L1.HDRip.x264.2.18GB.NNM-CLUB.GIU.mkv
Формат                                   : Matroska
Версия формата                           : Version 2
Размер файла                             : 2,18 Гбайт
Продолжительность                        : 1 ч. 51 м.
Общий поток                              : 2803 Кбит/сек
Название фильма                          : Pioneer.2013.L1.HDRip.x264.2.18GB.NNM-CLUB.GIU
Дата кодирования                         : UTC 2014-02-24 16:11:01
Программа кодирования                    : mkvmerge v2.9.9 ('Tutu') built on Nov 25 2009 21:13:32
Библиотека кодирования                   : libebml v0.7.9 + libmatroska v0.8.1
Видео
Идентификатор                            : 1
Формат                                   : AVC
Формат/Информация                        : Advanced Video Codec
Профиль формата                          : [url=mailto:High@L4.1]High@L4.1[/url]
Параметр CABAC формата                   : Да
Параметр ReFrames формата                : 12 кадров
Идентификатор кодека                     : V_MPEG4/ISO/AVC
Продолжительность                        : 1 ч. 51 м.
Битрейт                                  : 2039 Кбит/сек
Ширина                                   : 1024 пикселя
Высота                                   : 426 пикселей
Соотношение сторон                       : 2,40:1
Режим частоты кадров                     : Постоянный
Частота кадров                           : 24,000 кадра/сек
Цветовое пространство                    : YUV
Субдискретизация насыщенности            : 4:2:0
Битовая глубина                          : 8 бит
Тип развёртки                            : Прогрессивная
Бит/(Пиксели*Кадры)                      : 0.195
Размер потока                            : 1,54 Гбайт (71%)
Заголовок                                : -=Release for NNM-CLUB.RU=-
Библиотека кодирования                   : x264 core 133 r2334 a3ac64b
Настройки программы                      : cabac=1 / ref=12 / deblock=1:-3:-3 / analyse=0x3:0x113 / me=umh / subme=11 / psy=1 / psy_rd=1.00:0.25 / mixed_ref=0 / me_range=32 / chroma_me=1 / trellis=2 / 8x8dct=1 / cqm=0 / deadzone=21,11 / fast_pskip=1 / chroma_qp_offset=-4 / threads=12 / lookahead_threads=2 / sliced_threads=0 / nr=0 / decimate=0 / interlaced=0 / bluray_compat=0 / constrained_intra=0 / bframes=8 / b_pyramid=2 / b_adapt=2 / b_bias=0 / direct=3 / weightb=1 / open_gop=0 / weightp=2 / keyint=240 / keyint_min=24 / scenecut=40 / intra_refresh=0 / rc_lookahead=40 / rc=2pass / mbtree=1 / bitrate=2039 / ratetol=1.0 / qcomp=0.70 / qpmin=0 / qpmax=69 / qpstep=4 / cplxblur=20.0 / qblur=0.5 / vbv_maxrate=62500 / vbv_bufsize=78125 / nal_hrd=none / ip_ratio=1.40 / aq=1:1.00
Язык                                     : English
Default                                  : Нет
Forced                                   : Нет
Аудио #1
Идентификатор                            : 2
Формат                                   : AC-3
Формат/Информация                        : Audio Coding 3
Расширение режима                        : CM (complete main)
Параметр Endianness формата              : Big
Идентификатор кодека                     : A_AC3
Продолжительность                        : 1 ч. 51 м.
Вид битрейта                             : Постоянный
Битрейт                                  : 384 Кбит/сек
Каналы                                   : 6 каналов
Расположение каналов                     : Front: L C R, Side: L R, LFE
Частота                                  : 48,0 КГц
Битовая глубина                          : 16 бит
Метод сжатия                             : С потерями
Размер потока                            : 306 Мбайт (14%)
Заголовок                                : AC3.384.Kbps (6ch) Russian (VO datynet)
Язык                                     : Russian
Default                                  : Да
Forced                                   : Нет
Аудио #2
Идентификатор                            : 3
Формат                                   : AC-3
Формат/Информация                        : Audio Coding 3
Расширение режима                        : CM (complete main)
Параметр Endianness формата              : Big
Идентификатор кодека                     : A_AC3
Продолжительность                        : 1 ч. 51 м.
Вид битрейта                             : Постоянный
Битрейт                                  : 384 Кбит/сек
Каналы                                   : 6 каналов
Расположение каналов                     : Front: L C R, Side: L R, LFE
Частота                                  : 48,0 КГц
Битовая глубина                          : 16 бит
Метод сжатия                             : С потерями
Размер потока                            : 306 Мбайт (14%)
Заголовок                                : AC3.384.Kbps (6ch)  Norwegian
Язык                                     : Norwegian
Default                                  : Нет
Forced                                   : Нет
Текст #1
Идентификатор                            : 4
Формат                                   : UTF-8
Идентификатор кодека                     : S_TEXT/UTF8
Идентификатор кодека/Информация          : UTF-8 Plain Text
Заголовок                                : English (Full)
Язык                                     : English
Default                                  : Нет
Forced                                   : Нет
Текст #2
Идентификатор                            : 5
Формат                                   : UTF-8
Идентификатор кодека                     : S_TEXT/UTF8
Идентификатор кодека/Информация          : UTF-8 Plain Text
Заголовок                                : Norwegian (Full)
Язык                                     : Norwegian
Default                                  : Нет
Forced                                   : Нет
Меню
00:00:00.000                             : en:00:00:00.000
00:08:49.750                             : en:00:08:49.750
00:20:23.583                             : en:00:20:23.583
00:28:24.042                             : en:00:28:24.042
00:38:57.833                             : en:00:38:57.833
00:49:50.333                             : en:00:49:50.333
01:02:21.458                             : en:01:02:21.458
01:10:53.083                             : en:01:10:53.083
01:18:03.125                             : en:01:18:03.125
01:28:41.250                             : en:01:28:41.250
01:38:23.000                             : en:01:38:23.000
01:44:53.125                             : en:01:44:53.125

x264 iNFO

x264 [info]: profile High, level 4.1
x264 [info]: frame I:1125 Avg QP:18.63 size: 57051
x264 [info]: frame P:33537 Avg QP:21.61 size: 17930
x264 [info]: frame B:125514 Avg QP:22.17 size: 8210
x264 [info]: consecutive B-frames: 1.6% 1.9% 7.6% 16.2% 19.6% 44.7% 4.8% 2.0% 1.6%
Скриншоты:

[Цитировать]

Топик был перенесен из форума Новинки кинопроката в форум Триллер
Henkok



Показать сообщения:    

Текущее время: 10-Дек 09:58

Часовой пояс: UTC + 3


Вы не можете начинать темы
Вы не можете отвечать на сообщения
Вы не можете редактировать свои сообщения
Вы не можете удалять свои сообщения
Вы не можете голосовать в опросах
Вы не можете прикреплять файлы к сообщениям
Вы не можете скачивать файлы

!ВНИМАНИЕ!
Сайт не предоставляет электронные версии произведений, а занимается лишь коллекционированием и каталогизацией ссылок, присылаемых и публикуемых на форуме нашими читателями. Если вы являетесь правообладателем какого-либо представленного материала и не желаете, чтобы ссылка на него находилась в нашем каталоге, свяжитесь с нами, и мы незамедлительно удалим ее. Файлы для обмена на трекере предоставлены пользователями сайта, и администрация не несет ответственности за их содержание. Просьба не заливать файлы, защищенные авторскими правами, а также файлы нелегального содержания!