[ Сегодня идет свободное скачивание без начисления Download ]


Статистика раздачи
Нет
 
   
 
Top  
 
 
Человек-Паук / Spider-Man
«Turn your world upside down»
- Страна: США
Студии: Columbia Pictures Corporation, Laura Ziskin Productions, Marvel Enterprises
Жанр: боевик, фэнтези, приключения
Год выпуска: 2002
Продолжительность: 02:01:12
Перевод:
  • Профессиональный (полное дублирование) Blu-Ray CEE
  • Профессиональный (многоголосый, закадровый) Киномания
  • Профессиональный (двухголосый закадровый) П.Гланц и А.Назарова
  • Авторский (одноголосый закадровый) А.Гаврилов
  • Авторский (одноголосый закадровый) В.Королёв
  • Авторский (одноголосый закадровый) Е.Рудой
  • Одноголосый закадровый студия "Держиморда Продакшн"
  • Украинский профессиональный (многоголосый, закадровый) "ТК "Новий канал"
Cубтитры: русские, английские, английские (SDH), немецкие
Оригинальная аудиодорожка: английский-Режиссер: Сэм Рэйми / Sam Raimi
В ролях: Tobey Maguire (Тоби Магуайр), Willem Dafoe (Уиллем Дэфо), Kirsten Dunst (Кирстен Данст), James Franco (Джеймс Франко), Rosemary Harris (Розмари Харрис), Cliff Robertson (Клифф Робертсон), J.K. Simmons (Дж. К. Симмонс)-Описание: Однажды во время научной демонстрации опытов облученный радиацией паук незаметно кусает студента средней школы Питера Паркера. После этого у молодого человека развиваются необыкновенные способности, которыми обладают только пауки. Теперь он, подобно паукам, может лазить по стенам и потолкам, из жидкости на своих запястьях может делать подобие паутины, а также у него развивается особое чувство пауков, помогающее чувствовать приближающуюся опасность…
- -Тип релиза: BDRemux 1080p
Контейнер: MKV
Видео: MPEG-4 AVC Video / 34672 kbps / 1080p / 23,976 fps / 16:9 / High Profile 4.1
Аудио #1: Russian: 48 kHz, AC3, 3/2 (L,C,R,l,r) + LFE ch, ~640.00 kbps avg - [Dub, Blu-Ray CEE]
Аудио #2: Russian: 48 kHz, AC3, 3/2 (L,C,R,l,r) + LFE ch, ~448.00 kbps avg - [MVO, Киномания]
Аудио #3: Russian: DTS-HD Master Audio 5.1 / (48 kHz / 2219 kbps / 16-bit) (DTS Core: 5.1 / 48 kHz / 1509 kbps / 16-bit) - [DVO, П.Гланц и А.Назарова]
Аудио #4: Russian: DTS-HD Master Audio 5.1 / (48 kHz / 2217 kbps / 16-bit) (DTS Core: 5.1 / 48 kHz / 1509 kbps / 16-bit) - [AVO, А.Гаврилов]
Аудио #5: Russian: DTS-HD Master Audio 5.1 / (48 kHz / 2218 kbps / 16-bit) (DTS Core: 5.1 / 48 kHz / 1509 kbps / 16-bit) - [AVO, В.Королёв]
Аудио #6: Russian: DTS-HD Master Audio 5.1 / (48 kHz / 2214 kbps / 16-bit) (DTS Core: 5.1 / 48 kHz / 1509 kbps / 16-bit) - [AVO, Е.Рудой]
Аудио #7: Russian: 48 kHz, AC3, 2/0 (L,R) + LFE ch, ~192.00 kbps avg - [VO, студия "Держиморда Продакшн"]
Аудио #8: Ukrainian: 48 kHz, AC3, 1/0, ~192.00 kbps avg - [MVO, ТК "Новий канал"]
Аудио #9: English: DTS-HD Master Audio 5.1 / (48 kHz / 2208 kbps / 16-bit) (DTS Core: 5.1 / 48 kHz / 1509 kbps / 16-bit) - [Original]
Аудио #10: English: 48 kHz, AC3, 2/0 (L,R), 192 Kbps avg - [Сommentary with Director Sam Raimi, actor Kirsten Dunst, producer Laura Ziskin, and co-producer Grant Curtis]
Формат субтитров: softsub (SRT)
Чаптеры: 28 подписанных глав
-
  • Дорожки №3, №4, №6 получены наложением чистого голоса на центр декодированного оригинала.
  • Дорожка №5 получена наложением выделенного голоса с двд на центр декодированного оригинала.
  • Часть дорожек взята с раздачи BlueBird'a, спасибо АДмин.
  • Дорожку А.Гаврилова собрал сам.
  • Дорожка №9 получена пересбором из оригинального TrueHD.
-

Скриншоты


-

MediaInfo

Format                                   : Matroska
Format version                           : Version 2
File size                                : 40.1 GiB
Duration                                 : 2h 1mn
Overall bit rate mode                    : Variable
Overall bit rate                         : 47.4 Mbps
Movie name                               : Arifis
Encoded date                             : UTC 2013-06-04 16:44:37
Writing application                      : mkvmerge v5.2.1 ('A Far Off Place') built on Jan  2 2012 23:21:10
Writing library                          : libebml v1.2.3 + libmatroska v1.3.0
Video
ID                                       : 1
Format                                   : AVC
Format/Info                              : Advanced Video Codec
Format profile                           : High@L4.1
Format settings, CABAC                   : Yes
Format settings, ReFrames                : 2 frames
Codec ID                                 : V_MPEG4/ISO/AVC
Duration                                 : 2h 1mn
Bit rate mode                            : Variable
Width                                    : 1 920 pixels
Height                                   : 1 080 pixels
Display aspect ratio                     : 16:9
Frame rate mode                          : Constant
Frame rate                               : 23.976 fps
Color space                              : YUV
Chroma subsampling                       : 4:2:0
Bit depth                                : 8 bits
Scan type                                : Progressive
Title                                    : Spider-Man (Arifis)
Default                                  : Yes
Forced                                   : No
Audio #1
ID                                       : 2
Format                                   : AC-3
Format/Info                              : Audio Coding 3
Mode extension                           : CM (complete main)
Format settings, Endianness              : Big
Codec ID                                 : A_AC3
Duration                                 : 2h 1mn
Bit rate mode                            : Constant
Bit rate                                 : 640 Kbps
Channel(s)                               : 6 channels
Channel positions                        : Front: L C R, Side: L R, LFE
Sampling rate                            : 48.0 KHz
Bit depth                                : 16 bits
Compression mode                         : Lossy
Stream size                              : 555 MiB (1%)
Title                                    : AC3 5.1 @ 640 kbps - Dub, Blu-Ray CEE
Language                                 : Russian
Default                                  : Yes
Forced                                   : No
Audio #2
ID                                       : 3
Format                                   : AC-3
Format/Info                              : Audio Coding 3
Mode extension                           : CM (complete main)
Format settings, Endianness              : Big
Codec ID                                 : A_AC3
Duration                                 : 2h 1mn
Bit rate mode                            : Constant
Bit rate                                 : 448 Kbps
Channel(s)                               : 6 channels
Channel positions                        : Front: L C R, Side: L R, LFE
Sampling rate                            : 48.0 KHz
Bit depth                                : 16 bits
Compression mode                         : Lossy
Stream size                              : 388 MiB (1%)
Title                                    : AC3 5.1 @ 448 kbps - MVO, Киномания
Language                                 : Russian
Default                                  : No
Forced                                   : No
Audio #3
ID                                       : 4
Format                                   : DTS
Format/Info                              : Digital Theater Systems
Format profile                           : MA / Core
Mode                                     : 16
Format settings, Endianness              : Big
Codec ID                                 : A_DTS
Duration                                 : 2h 1mn
Bit rate mode                            : Variable
Bit rate                                 : Unknown / 1 509 Kbps
Channel(s)                               : 6 channels
Channel positions                        : Front: L C R, Side: L R, LFE
Sampling rate                            : 48.0 KHz
Bit depth                                : 16 bits
Compression mode                         : Lossless / Lossy
Title                                    : DTS-HD MA 5.1 @ 2219 kbps - DVO, П.Гланц и А.Назарова
Language                                 : Russian
Default                                  : No
Forced                                   : No
Audio #4
ID                                       : 5
Format                                   : DTS
Format/Info                              : Digital Theater Systems
Format profile                           : MA / Core
Mode                                     : 16
Format settings, Endianness              : Big
Codec ID                                 : A_DTS
Duration                                 : 2h 1mn
Bit rate mode                            : Variable
Bit rate                                 : Unknown / 1 509 Kbps
Channel(s)                               : 6 channels
Channel positions                        : Front: L C R, Side: L R, LFE
Sampling rate                            : 48.0 KHz
Bit depth                                : 16 bits
Compression mode                         : Lossless / Lossy
Title                                    : DTS-HD MA 5.1 @ 2217 kbps - AVO, А.Гаврилов
Language                                 : Russian
Default                                  : No
Forced                                   : No
Audio #5
ID                                       : 6
Format                                   : DTS
Format/Info                              : Digital Theater Systems
Format profile                           : MA / Core
Mode                                     : 16
Format settings, Endianness              : Big
Codec ID                                 : A_DTS
Duration                                 : 2h 1mn
Bit rate mode                            : Variable
Bit rate                                 : Unknown / 1 509 Kbps
Channel(s)                               : 6 channels
Channel positions                        : Front: L C R, Side: L R, LFE
Sampling rate                            : 48.0 KHz
Bit depth                                : 16 bits
Compression mode                         : Lossless / Lossy
Title                                    : DTS-HD MA 5.1 @ 2218 kbps - AVO, В.Королёв
Language                                 : Russian
Default                                  : No
Forced                                   : No
Audio #6
ID                                       : 7
Format                                   : DTS
Format/Info                              : Digital Theater Systems
Format profile                           : MA / Core
Mode                                     : 16
Format settings, Endianness              : Big
Codec ID                                 : A_DTS
Duration                                 : 2h 1mn
Bit rate mode                            : Variable
Bit rate                                 : Unknown / 1 509 Kbps
Channel(s)                               : 6 channels
Channel positions                        : Front: L C R, Side: L R, LFE
Sampling rate                            : 48.0 KHz
Bit depth                                : 16 bits
Compression mode                         : Lossless / Lossy
Title                                    : DTS-HD MA 5.1 @ 2214 kbps - AVO, Е.Рудой
Language                                 : Russian
Default                                  : No
Forced                                   : No
Audio #7
ID                                       : 8
Format                                   : AC-3
Format/Info                              : Audio Coding 3
Format profile                           : Dolby Digital
Mode extension                           : CM (complete main)
Format settings, Endianness              : Big
Codec ID                                 : A_AC3
Duration                                 : 2h 1mn
Bit rate mode                            : Constant
Bit rate                                 : 192 Kbps
Channel(s)                               : 2 channels
Channel positions                        : Front: L R
Sampling rate                            : 48.0 KHz
Bit depth                                : 16 bits
Compression mode                         : Lossy
Stream size                              : 166 MiB (0%)
Title                                    : АС3 2.0 @ 192 kbps - VO, студия "Держиморда Продакшн"
Language                                 : Russian
Default                                  : No
Forced                                   : No
Audio #8
ID                                       : 9
Format                                   : AC-3
Format/Info                              : Audio Coding 3
Mode extension                           : CM (complete main)
Format settings, Endianness              : Big
Codec ID                                 : A_AC3
Duration                                 : 2h 1mn
Bit rate mode                            : Constant
Bit rate                                 : 192 Kbps
Channel(s)                               : 1 channel
Channel positions                        : Front: C
Sampling rate                            : 48.0 KHz
Bit depth                                : 16 bits
Compression mode                         : Lossy
Stream size                              : 166 MiB (0%)
Title                                    : АС3 1.0 @ 192 kbps - MVO, ТК "Новий канал"
Language                                 : Ukrainian
Default                                  : No
Forced                                   : No
Audio #9
ID                                       : 10
Format                                   : DTS
Format/Info                              : Digital Theater Systems
Format profile                           : MA / Core
Mode                                     : 16
Format settings, Endianness              : Big
Codec ID                                 : A_DTS
Duration                                 : 2h 1mn
Bit rate mode                            : Variable
Bit rate                                 : Unknown / 1 509 Kbps
Channel(s)                               : 6 channels
Channel positions                        : Front: L C R, Side: L R, LFE
Sampling rate                            : 48.0 KHz
Bit depth                                : 16 bits
Compression mode                         : Lossless / Lossy
Title                                    : DTS-HD MA 5.1 Original @ 2208 kbps
Language                                 : English
Default                                  : No
Forced                                   : No
Audio #10
ID                                       : 11
Format                                   : AC-3
Format/Info                              : Audio Coding 3
Format profile                           : Dolby Digital
Mode extension                           : CM (complete main)
Format settings, Endianness              : Big
Codec ID                                 : A_AC3
Duration                                 : 2h 1mn
Bit rate mode                            : Constant
Bit rate                                 : 192 Kbps
Channel(s)                               : 2 channels
Channel positions                        : Front: L R
Sampling rate                            : 48.0 KHz
Bit depth                                : 16 bits
Compression mode                         : Lossy
Stream size                              : 166 MiB (0%)
Title                                    : АС3 2.0 @ 192 kbps - Сommentary with Director Sam Raimi, actor Kirsten Dunst, producer Laura Ziskin, and co-producer Grant Curtis
Language                                 : English
Default                                  : No
Forced                                   : No
Text #1
ID                                       : 12
Format                                   : UTF-8
Codec ID                                 : S_TEXT/UTF8
Codec ID/Info                            : UTF-8 Plain Text
Title                                    : Full Rus
Language                                 : Russian
Default                                  : No
Forced                                   : No
Text #2
ID                                       : 13
Format                                   : UTF-8
Codec ID                                 : S_TEXT/UTF8
Codec ID/Info                            : UTF-8 Plain Text
Title                                    : Full Eng
Language                                 : English
Default                                  : No
Forced                                   : No
Text #3
ID                                       : 14
Format                                   : UTF-8
Codec ID                                 : S_TEXT/UTF8
Codec ID/Info                            : UTF-8 Plain Text
Title                                    : SDH Eng
Language                                 : English
Default                                  : No
Forced                                   : No
Text #4
ID                                       : 15
Format                                   : UTF-8
Codec ID                                 : S_TEXT/UTF8
Codec ID/Info                            : UTF-8 Plain Text
Title                                    : Full Ger
Language                                 : German
Default                                  : No
Forced                                   : No
Menu
00:00:00.000                             : :01. Start
00:06:29.472                             : :02. Columbia University Research Lab
00:09:22.896                             : :03. Bitten by a Spider
00:14:56.187                             : :04. Norman Tests the Performance Enhancers
00:17:50.653                             : :05. A Big Change
00:21:53.604                             : :06. Great Reflexes
00:23:28.616                             : :07. Fight With Flash
00:25:18.767                             : :08. Scaling the Hights
00:34:35.115                             : :08. With Great Power Comes Great Responsibility
00:40:22.170                             : :10. The Wrestling Match
00:41:44.127                             : :11. Enter the Thief
00:43:13.883                             : :12. The Death of Uncle Ben
00:44:40.011                             : :13. Chasing Uncle Ben's Killer
00:54:32.978                             : :14. Spider-Man to the Rescue
00:55:52.558                             : :15. J. Jonah Jameson
01:00:48.937                             : :16. Peter's Photos of Spider-Man
01:04:20.774                             : :17. World Unity Festival
01:05:57.036                             : :18. Battle Over Times Square
01:12:12.370                             : :19. Norman Meets the Goblin
01:14:18.871                             : :20. Goblin Terrorizes the Bugle
01:15:48.669                             : :21. The Goblin's Proposal
01:19:35.521                             : :22. The Alley Kiss
01:22:06.463                             : :23. Hot Time With the Goblin
01:25:13.608                             : :24. Thanksgiving Dinner
01:30:39.225                             : :25. Goblin Attacks Aunt May
01:39:36.679                             : :26. The Queensboro Bridge
01:45:08.385                             : :27. A Final Battle
01:50:27.830                             : :28. Norman's Funeral
-

[Цитировать]



Показать сообщения:    

Текущее время: 07-Дек 19:29

Часовой пояс: UTC + 3


Вы не можете начинать темы
Вы не можете отвечать на сообщения
Вы не можете редактировать свои сообщения
Вы не можете удалять свои сообщения
Вы не можете голосовать в опросах
Вы не можете прикреплять файлы к сообщениям
Вы не можете скачивать файлы

!ВНИМАНИЕ!
Сайт не предоставляет электронные версии произведений, а занимается лишь коллекционированием и каталогизацией ссылок, присылаемых и публикуемых на форуме нашими читателями. Если вы являетесь правообладателем какого-либо представленного материала и не желаете, чтобы ссылка на него находилась в нашем каталоге, свяжитесь с нами, и мы незамедлительно удалим ее. Файлы для обмена на трекере предоставлены пользователями сайта, и администрация не несет ответственности за их содержание. Просьба не заливать файлы, защищенные авторскими правами, а также файлы нелегального содержания!