[ Сегодня идет свободное скачивание без начисления Download ]


Статистика раздачи
Нет
 
   
 
Top  
 
 
--Гравитация / Gravity--«Не отпускай»-- Страна: США, Великобритания
Студия: Warner Bros. - Esperanto Filmoj - Heyday Films
Жанр: фантастика, триллер, драма
Год выпуска: 2013
Продолжительность: 01:30:58-Перевод: Профессиональный (дублированный) Лицензия, Blu-ray [EUR]
Cубтитры: Русские, Украинские, Английские
Оригинальная аудиодорожка: Английский-Режиссер: Альфонсо Куарон / Alfonso Cuarn-В ролях: Сандра Буллок (Ryan Stone), Джордж Клуни (Matt Kowalski), Эд Харрис (Mission Control, озвучка), Орто Игнатиуссен (Aningaaq, озвучка), Фалдут Шарма (Shariff, озвучка), Эми Уоррен (Explorer Captain, озвучка), Башер Саваж (Russian Space Station Captain, озвучка)
Описание: Доктор Райан Стоун, блестящий специалист в области медицинского инжиниринга, отправляется в свою первую космическую миссию под командованием ветерана астронавтики Мэтта Ковальски, для которого этот полет — последний перед отставкой. Но во время, казалось бы, рутинной работы за бортом случается катастрофа. Шаттл уничтожен, а Стоун и Ковальски остаются совершенно одни; они находятся в связке друг с другом, и все, что они могут, — это двигаться по орбите в абсолютно черном пространстве без всякой связи с Землей и какой-либо надежды на спасение.- -Тип релиза: BDRip 1080p [CHD]
Контейнер: MKV
Видео: x.264, NTSC 23.976, 1920x800, 11000 кбит/с
Аудио: Русский, AC3, 6ch (L, C, R, Ls, Rs +LFE), 448 кбит/с
Аудио 2: Украинский, AC3, 6ch (L, C, R, Ls, Rs +LFE), 448 кбит/с
Аудио 3: Английский (Оригинал), DTS, 6ch (L, C, R, Ls, Rs +LFE), 1536 кбит/с
Формат субтитров: softsub (SRT)-

MediaInfo

General
Unique ID : 231010460564362182801159438700947596802 (0xADCAFF1094CA2754B06188662D126602)
Complete name : F:\BD torrent\Gravity.2013.BluRay.1080p.Rus.Ukr.Eng.ac3.dts.CHD.mkv
Format : Matroska
Format version : Version 2
File size : 8.49 GiB
Duration : 1h 30mn
Overall bit rate : 13.4 Mbps
Encoded date : UTC 2014-02-13 19:26:44
Writing application : mkvmerge v6.7.0 ('Back to the Ground') 32bit built on Jan 8 2014 15:03:17
Writing library : libebml v1.3.0 + libmatroska v1.4.1
Video
ID : 1
Format : AVC
Format/Info : Advanced Video Codec
Format profile : High@L4.1
Format settings, CABAC : Yes
Format settings, ReFrames : 5 frames
Codec ID : V_MPEG4/ISO/AVC
Duration : 1h 30mn
Bit rate : 11.0 Mbps
Width : 1 920 pixels
Height : 800 pixels
Display aspect ratio : 2.40:1
Frame rate mode : Constant
Frame rate : 23.976 fps
Color space : YUV
Chroma subsampling : 4:2:0
Bit depth : 8 bits
Scan type : Progressive
Bits/(Pixel*Frame) : 0.298
Stream size : 6.79 GiB (80%)
Writing library : x264 core 138 r2356 a1d3d17
Encoding settings : cabac=1 / ref=5 / deblock=1:-3:-3 / analyse=0x3:0x113 / me=umh / subme=10 / psy=1 / psy_rd=1.00:0.05 / mixed_ref=1 / me_range=32 / chroma_me=1 / trellis=2 / 8x8dct=1 / cqm=0 / deadzone=21,11 / fast_pskip=0 / chroma_qp_offset=-2 / threads=18 / lookahead_threads=1 / sliced_threads=0 / nr=0 / decimate=1 / interlaced=0 / bluray_compat=0 / constrained_intra=0 / bframes=6 / b_pyramid=2 / b_adapt=2 / b_bias=0 / direct=3 / weightb=1 / open_gop=0 / weightp=2 / keyint=250 / keyint_min=23 / scenecut=40 / intra_refresh=0 / rc=2pass / mbtree=0 / bitrate=10959 / ratetol=1.0 / qcomp=0.70 / qpmin=0 / qpmax=69 / qpstep=4 / cplxblur=20.0 / qblur=0.5 / ip_ratio=1.40 / pb_ratio=1.30 / aq=2:0.90
Language : English
Default : Yes
Forced : Yes
Audio #1
ID : 2
Format : AC-3
Format/Info : Audio Coding 3
Mode extension : CM (complete main)
Format settings, Endianness : Big
Codec ID : A_AC3
Duration : 1h 30mn
Bit rate mode : Constant
Bit rate : 448 Kbps
Channel(s) : 6 channels
Channel positions : Front: L C R, Side: L R, LFE
Sampling rate : 48.0 KHz
Bit depth : 16 bits
Compression mode : Lossy
Stream size : 292 MiB (3%)
Language : Russian
Default : Yes
Forced : No
Audio #2
ID : 3
Format : AC-3
Format/Info : Audio Coding 3
Mode extension : CM (complete main)
Format settings, Endianness : Big
Codec ID : A_AC3
Duration : 1h 30mn
Bit rate mode : Constant
Bit rate : 448 Kbps
Channel(s) : 6 channels
Channel positions : Front: L C R, Side: L R, LFE
Sampling rate : 48.0 KHz
Bit depth : 16 bits
Compression mode : Lossy
Stream size : 292 MiB (3%)
Language : Ukrainian
Default : No
Forced : No
Audio #3
ID : 4
Format : DTS
Format/Info : Digital Theater Systems
Mode : 16
Format settings, Endianness : Big
Codec ID : A_DTS
Duration : 1h 30mn
Bit rate mode : Constant
Bit rate : 1 509 Kbps
Channel(s) : 6 channels
Channel positions : Front: L C R, Side: L R, LFE
Sampling rate : 48.0 KHz
Bit depth : 24 bits
Compression mode : Lossy
Stream size : 982 MiB (11%)
Language : English
Default : No
Forced : No
Text #1
ID : 5
Format : UTF-8
Codec ID : S_TEXT/UTF8
Codec ID/Info : UTF-8 Plain Text
Language : Russian
Default : Yes
Forced : Yes
Text #2
ID : 6
Format : UTF-8
Codec ID : S_TEXT/UTF8
Codec ID/Info : UTF-8 Plain Text
Language : Russian
Default : No
Forced : No
Text #3
ID : 7
Format : UTF-8
Codec ID : S_TEXT/UTF8
Codec ID/Info : UTF-8 Plain Text
Language : Ukrainian
Default : No
Forced : No
Text #4
ID : 8
Format : UTF-8
Codec ID : S_TEXT/UTF8
Codec ID/Info : UTF-8 Plain Text
Language : English
Default : No
Forced : No
Menu
00:00:00.000 : en:00:00:00.000
00:13:08.830 : en:00:13:08.830
00:21:33.542 : en:00:21:33.542
00:29:12.668 : en:00:29:12.668
00:39:59.856 : en:00:39:59.856
00:48:49.051 : en:00:48:49.051
00:57:00.667 : en:00:57:00.667
01:08:08.418 : en:01:08:08.418
01:15:27.148 : en:01:15:27.148
01:23:50.567 : en:01:23:50.567

Скриншот c названием фильма

Скриншоты

скриншоты с субтитрами: Русские / Украинские / Английские

[Цитировать]



Показать сообщения:    

Текущее время: 25-Фев 03:03

Часовой пояс: UTC + 3


Вы не можете начинать темы
Вы не можете отвечать на сообщения
Вы не можете редактировать свои сообщения
Вы не можете удалять свои сообщения
Вы не можете голосовать в опросах
Вы не можете прикреплять файлы к сообщениям
Вы не можете скачивать файлы

!ВНИМАНИЕ!
Сайт не предоставляет электронные версии произведений, а занимается лишь коллекционированием и каталогизацией ссылок, присылаемых и публикуемых на форуме нашими читателями. Если вы являетесь правообладателем какого-либо представленного материала и не желаете, чтобы ссылка на него находилась в нашем каталоге, свяжитесь с нами, и мы незамедлительно удалим ее. Файлы для обмена на трекере предоставлены пользователями сайта, и администрация не несет ответственности за их содержание. Просьба не заливать файлы, защищенные авторскими правами, а также файлы нелегального содержания!