[ Сегодня идет свободное скачивание без начисления Download ]


Статистика раздачи
Нет
 
   
 
Top  
 
 
Пила: Полное собрание / Saw: The Complete Collection Название: Пила: Полное собрание
Оригинальное название: Saw: The Complete Collection
Год выхода: 2004/2005/2006/2007/2008/2009/2010
Жанр: криминал, ужасы, мистика, триллер
Режиссер: Джеймс Ван, Даррен Линн Боусман, Дэвид Хэкл, Кевин Гротерт
Выпущено: США, Австралия, Канада, Великобритания
Продолжительность: 01:42:46 | 01:34:32 | 01:53:45 | 01:35:32 | 01:35:04 | 01:31:38 | 01:30:11
Пила: Игра на выживание / Saw 1080p BDRip
Режиссерская Версия / Director's Cut
Год выпуска: 2004
Страна: США, Австралия
Жанр: ужасы, криминал, детектив
Продолжительность: 01:42:46
Перевод 1: Профессиональный (полное дублирование)
Перевод 2: Профессиональный (многоголосый закадровый)
Перевод 3: Профессиональный (двухголосый закадровый) - Tycoon
Перевод 4: Авторский (одноголосый закадровый) - В. Королёв
Перевод 5: Авторский (одноголосый закадровый) - А. Гаврилов
Перевод 6: Авторский (одноголосый закадровый) - А. Дольский
Перевод 7: Одноголосый закадровый - madrid
Перевод 8: Авторский (одноголосый закадровый) - Е. Гранкин
Субтитры: Russian, English, Ukrainian
Слоган: «Сколько крови ты прольешь для неё?»
Режиссер: Джеймс Ван / James Wan
В ролях: Ли Уоннелл, Кэри Элвис, Дэнни Гловер, Кен Люн, Дина Мейер, Майк Баттерз, Пол Гутрехт, Майкл Эмерсон, Бенито Мартинез, Шоуни Смит, Макензи Вега, Моника Поттер, Нед Беллами, Александра Бокун Чун, Avner Garbi, Тобин Белл
Описание: Двое незнакомцев просыпаются в странном подвальном помещении. В центре помещения — труп мужчины с простреленной головой и оружием в ослабевшей руке. Они же прикованы к стенам цепями за щиколотки. Оба не знают, как там оказались.
Путём нехитрых предположений и спрятанных вокруг них ответов, как частей какого-то паззла, они узнают, по крайней мере, зачем они здесь и что именно от них ждёт их Похититель. Голос с найденной плёнки бесстрастно вещает: «Если ты хочешь спасти свою жену и детей, убей другого». Убить другого можно, только дотянувшись до оружия.
Дотянуться до оружия нельзя иначе, как избавившись от цепи. Избавиться от цепи нельзя иначе, кроме как отпилив ногу. Времени — мало. Но достаточно, чтобы реконструировать цепочку странных событий, которые привели каждого из них туда, где они сейчас оказались…

Качество: BDRip 1080p by SbR
Формат: MKV
Видео: 1920x1080 at 23.976 fps, x264@L4.1, ~16500 kbps avg
Аудио#1: Russian: 48 kHz, DTS, 5.1, ~1536.00 kbps avg |Дубляж|
Аудио#2: Russian: 48 kHz, DTS, 5.1, ~1536.00 kbps avg |Многоголосый закадровый|
Аудио#3: Russian: 48 kHz, AC3, 5.1, ~448.00 kbps avg |Двухголосый закадровый, Tycoon|
Аудио#4: Russian: 48 kHz, DTS, 5.1, ~1536.00 kbps avg |Одноголосый закадровый, В. Королёв|
Аудио#5: Russian: 48 kHz, AC3, 5.1, ~448.00 kbps avg |Одноголосый закадровый, А. Гаврилов|
Аудио#6: Russian: 48 kHz, DTS-ES, 6.1, ~1536.00 kbps avg |Одноголосый закадровый, А. Дольский|
Аудио#7: Russian: 48 kHz, DTS, 5.1, ~1536.00 kbps avg |Одноголосый закадровый, madrid|
Аудио#8: Russian: 48 kHz, 5.1, ~224.00 kbps avg |Одноголосый закадровый, Е. Гранкин|
Аудио#9: Ukrainian: 48 kHz, AC3, 5,1, ~384.00 kbps avg |Многоголосый закадровый, Студія Мова|
Аудио#10: English: 48 kHz, DTS-ES, 5.1, ~1536.00 kbps avg

Знаете ли вы, что...

» На подготовку к съемкам было потрачено всего пять дней. Сам съемочный процесс длился 18 дней, из которых на сцены в ванной комнате было потрачено шесть.
» Решение о запуске сиквела в производство было принято сразу же по окончании дебютного уикенда.
» Никаких репетиций запланировано не было. Актерам пришлось играть с чистого листа.
» Пробная сцена, представленная на суд Голливудских продюсеров, была отснята с применением медвежьего капкана. Единственным отличием от фильма было то, что на месте Шоуни Смит был представлен Ли Уоннелл. Самое интересное, что это устройство могло на самом деле сломать челюсть жертвы, если его правильно настроить.
» Авторам идеи Джеймсу Вану и Ли Уоннеллу пришлось переснимать некоторые сцены в то время, когда задействованные актеры были уже недоступны. Съемки велись таким образом, чтобы в кадре не мелькали лица. Все эти сцены были отсняты при участии Уоннелла.
» Таким образом, актер сыграл Детектива Синга, входящего в здание с дробовиком, а также персонажа Шоуни Смит, кромсающую свою жертву ножом. Чтобы тень на стене была похожа на женскую, Уоннеллу пришлось надевать парик.
» Ли Уоннелл сообщил, что сцена в которой его персонаж окунает руку в унитаз, была придумана под впечатлением от похожей сцены в картине «На игле».
» Все съемки проходили в одном павильоне.
» На кинофестивале в Торонто фильм закрывал конкурсную программу.
» Фильм снимался для выпуска сразу на видео. Однако после лестных откликов на тестовых просмотрах было принято решение выпустить фильм и на широкие экраны.
» Режиссер Джеймс Ван серьезно рисковал, отказавшись от обычного гонорара и предпочтя работать за процент от прибыли. Картина умудрилась собрать 102 миллиона долларов в международном прокате, заработав, таким образом, в 85 раз больше своего бюджета (1,2).
» Основная часть съёмок прошла на заброшенном складе. Нужные комнаты отремонтировали для съёмок тех или иных сцен. Только для туалета сделали отдельные декорации.
» Сцена автомобильной погони была снята в гараже склада при выключенном свете с добавлением искусственного дыма, а также несколько человек раскачивали машины для создания эффекта движения.
» В фильме содержится множество ссылок на картины Дарио Ардженто.
» Мертвого сокамерника Аманды сыграл один из продюсеров фильма, Орен Коулес.
» Для того чтобы получить рейтинг R из фильма вырезали несколько особенно жестоких сцен, среди которых были: Аманда роется в кишках своего мертвого сокамерника; сцена, где жирный парень пробирается через колючую проволоку, была значительно длиннее.
» Прочитав сценарий, агент Джеймса Ванна и Ли Уоннелла посоветовал им снять одну из сцен в качестве короткометражки и рассылать её по голливудским студиям вместе с сценарием.
» Агент по кастингу Эми Липпенс поинтересовалась у Джеймса Ванна, кого бы он хотел видеть в роли Аманды. Ван, не задумываясь, ответил — Шоуни Смит, в которую он был влюблен в юности. Спустя пару дней к большому удивлению Джеймса Эми сообщила, что Шоуни согласилась сыграть в фильме.
» Согласно комментарию на DVD, ночные кошмары Джеймса Вана и Ли Уоннелла легли в основу большинства жутких и страшных сцен фильма.
» Тобину Беллу пришлось неподвижно лежать на полу в течение шести дней. Его не стали подменять манекеном, поскольку создатели ленты не могли позволить себе этого по финансовым соображениям.
» Кэри Элвис согласился на роль после просмотра кассеты, которую Джеймс Ван и Ли Уоннелл сделали в качестве наглядного примера для продюссеров.
» Актеру Тобину Беллу каждый из шести съемочных дней вкалывали успокаивающее, чтобы он лежал совсем уж неподвижно.

MediaInfo

General
Unique ID : 243608796782680297723300196657154073066 (0xB74558FF325386B0B89524C54779A1EA)
Complete name : F:\мае\Фильмы\Saw.The.Complete.Collection.1080p.BluRay.Rus.Ukr.Eng.HDCLUB-SbR\Saw.2004.1080p.BluRay.8xRus.Ukr.Eng.HDCLUB-SbR.mkv
Format : Matroska
Format version : Version 4 / Version 2
File size : 19.4 GiB
Duration : 1h 42mn
Overall bit rate : 27.1 Mbps
Movie name : Saw (2004) - Release for HDCLUB by SbR
Encoded date : UTC 2013-07-10 07:27:22
Writing application : mkvmerge v6.2.0 ('Promised Land') built on Apr 28 2013 12:22:01
Writing library : libebml v1.3.0 + libmatroska v1.4.0
Attachment : Yes / Yes
Video
ID : 1
Format : AVC
Format/Info : Advanced Video Codec
Format profile : High@L4.1
Format settings, CABAC : Yes
Format settings, ReFrames : 4 frames
Codec ID : V_MPEG4/ISO/AVC
Duration : 1h 42mn
Bit rate : 16.5 Mbps
Width : 1 920 pixels
Height : 1 080 pixels
Display aspect ratio : 16:9
Frame rate mode : Constant
Frame rate : 23.976 fps
Color space : YUV
Chroma subsampling : 4:2:0
Bit depth : 8 bits
Scan type : Progressive
Bits/(Pixel*Frame) : 0.332
Stream size : 11.5 GiB (59%)
Title : Release for HDCLUB
Writing library : x264 core 133 r2334kMod a3ac64b
Encoding settings : cabac=1 / ref=4 / deblock=1:-2:-2 / analyse=0x3:0x113 / me=umh / subme=11 / psy=1 / fade_compensate=0.00 / psy_rd=1.00:0.00 / mixed_ref=1 / me_range=48 / chroma_me=1 / trellis=2 / 8x8dct=1 / cqm=0 / deadzone=21,11 / fast_pskip=0 / chroma_qp_offset=-2 / threads=12 / lookahead_threads=2 / sliced_threads=0 / nr=0 / decimate=1 / interlaced=0 / bluray_compat=0 / constrained_intra=0 / bframes=8 / b_pyramid=2 / b_adapt=2 / b_bias=0 / direct=3 / weightb=1 / open_gop=0 / weightp=2 / keyint=250 / keyint_min=23 / scenecut=40 / intra_refresh=0 / rc_lookahead=40 / rc=2pass / mbtree=0 / bitrate=16500 / ratetol=1.0 / qcomp=0.70 / qpmin=0 / qpmax=69 / qpstep=4 / cplxblur=20.0 / qblur=0.5 / vbv_maxrate=62500 / vbv_bufsize=78125 / nal_hrd=none / ip_ratio=1.25 / pb_ratio=1.15 / aq=1:0.70
Language : English
Default : Yes
Forced : No
Color primaries : BT.709
Transfer characteristics : BT.709
Matrix coefficients : BT.709
Audio #1
ID : 2
Format : DTS
Format/Info : Digital Theater Systems
Mode : 16
Format settings, Endianness : Big
Codec ID : A_DTS
Duration : 1h 42mn
Bit rate mode : Constant
Bit rate : 1 510 Kbps
Channel(s) : 6 channels
Channel positions : Front: L C R, Side: L R, LFE
Sampling rate : 48.0 KHz
Bit depth : 24 bits
Compression mode : Lossy
Stream size : 1.08 GiB (6%)
Title : Dub
Language : Russian
Default : Yes
Forced : No
Audio #2
ID : 3
Format : DTS
Format/Info : Digital Theater Systems
Mode : 16
Format settings, Endianness : Big
Codec ID : A_DTS
Duration : 1h 42mn
Bit rate mode : Constant
Bit rate : 1 509 Kbps
Channel(s) : 6 channels
Channel positions : Front: L C R, Side: L R, LFE
Sampling rate : 48.0 KHz
Bit depth : 24 bits
Compression mode : Lossy
Stream size : 1.08 GiB (6%)
Title : MVO
Language : Russian
Default : No
Forced : No
Audio #3
ID : 4
Format : AC-3
Format/Info : Audio Coding 3
Mode extension : CM (complete main)
Format settings, Endianness : Big
Codec ID : A_AC3
Duration : 1h 42mn
Bit rate mode : Constant
Bit rate : 448 Kbps
Channel(s) : 6 channels
Channel positions : Front: L C R, Side: L R, LFE
Sampling rate : 48.0 KHz
Bit depth : 16 bits
Compression mode : Lossy
Stream size : 329 MiB (2%)
Title : DVO, Tycoon
Language : Russian
Default : No
Forced : No
Audio #4
ID : 5
Format : DTS
Format/Info : Digital Theater Systems
Mode : 16
Format settings, Endianness : Big
Codec ID : A_DTS
Duration : 1h 42mn
Bit rate mode : Constant
Bit rate : 1 509 Kbps
Channel(s) : 6 channels
Channel positions : Front: L C R, Side: L R, LFE
Sampling rate : 48.0 KHz
Bit depth : 24 bits
Compression mode : Lossy
Stream size : 1.08 GiB (6%)
Title : VO, Korolev
Language : Russian
Default : No
Forced : No
Audio #5
ID : 6
Format : AC-3
Format/Info : Audio Coding 3
Mode extension : CM (complete main)
Format settings, Endianness : Big
Codec ID : A_AC3
Duration : 1h 42mn
Bit rate mode : Constant
Bit rate : 448 Kbps
Channel(s) : 6 channels
Channel positions : Front: L C R, Side: L R, LFE
Sampling rate : 48.0 KHz
Bit depth : 16 bits
Compression mode : Lossy
Stream size : 329 MiB (2%)
Title : VO, Gavrilov
Language : Russian
Default : No
Forced : No
Audio #6
ID : 7
Format : DTS
Format/Info : Digital Theater Systems
Format profile : ES
Mode : 16
Format settings, Endianness : Big
Codec ID : A_DTS
Duration : 1h 42mn
Bit rate mode : Constant
Bit rate : 1 509 Kbps
Channel(s) : 7 channels / 6 channels
Channel positions : Front: L C R, Side: L R, Back: C, LFE / Front: L C R, Side: L R, LFE
Sampling rate : 48.0 KHz
Bit depth : 16 bits
Compression mode : Lossy
Stream size : 1.08 GiB (6%)
Title : VO, Dol`skii`
Language : Russian
Default : No
Forced : No
Audio #7
ID : 8
Format : DTS
Format/Info : Digital Theater Systems
Mode : 16
Format settings, Endianness : Big
Codec ID : A_DTS
Duration : 1h 42mn
Bit rate mode : Constant
Bit rate : 1 509 Kbps
Channel(s) : 6 channels
Channel positions : Front: L C R, Side: L R, LFE
Sampling rate : 48.0 KHz
Bit depth : 24 bits
Compression mode : Lossy
Stream size : 1.08 GiB (6%)
Title : VO, madrid
Language : Russian
Default : No
Forced : No
Audio #8
ID : 9
Format : AC-3
Format/Info : Audio Coding 3
Mode extension : CM (complete main)
Format settings, Endianness : Big
Codec ID : A_AC3
Duration : 1h 42mn
Bit rate mode : Constant
Bit rate : 224 Kbps
Channel(s) : 6 channels
Channel positions : Front: L C R, Side: L R, LFE
Sampling rate : 48.0 KHz
Bit depth : 16 bits
Compression mode : Lossy
Stream size : 165 MiB (1%)
Title : VO, Grankin
Language : Russian
Default : No
Forced : No
Audio #9
ID : 10
Format : AC-3
Format/Info : Audio Coding 3
Mode extension : CM (complete main)
Format settings, Endianness : Big
Codec ID : A_AC3
Duration : 1h 42mn
Bit rate mode : Constant
Bit rate : 384 Kbps
Channel(s) : 6 channels
Channel positions : Front: L C R, Side: L R, LFE
Sampling rate : 48.0 KHz
Bit depth : 16 bits
Compression mode : Lossy
Stream size : 282 MiB (1%)
Title : MVO
Language : Ukrainian
Default : No
Forced : No
Audio #10
ID : 11
Format : DTS
Format/Info : Digital Theater Systems
Format profile : ES
Mode : 16
Format settings, Endianness : Big
Codec ID : A_DTS
Duration : 1h 42mn
Bit rate mode : Constant
Bit rate : 1 509 Kbps
Channel(s) : 6 channels
Channel positions : Front: L C R, Side: L R, LFE
Sampling rate : 48.0 KHz
Bit depth : 24 bits
Compression mode : Lossy
Stream size : 1.08 GiB (6%)
Language : English
Default : No
Forced : No
Text #1
ID : 12
Format : UTF-8
Codec ID : S_TEXT/UTF8
Codec ID/Info : UTF-8 Plain Text
Language : Russian
Default : No
Forced : No
Text #2
ID : 13
Format : UTF-8
Codec ID : S_TEXT/UTF8
Codec ID/Info : UTF-8 Plain Text
Language : English
Default : No
Forced : No
Text #3
ID : 14
Format : UTF-8
Codec ID : S_TEXT/UTF8
Codec ID/Info : UTF-8 Plain Text
Language : Ukrainian
Default : No
Forced : No
Menu
00:00:00.000 : en:Trapped
00:06:30.390 : en:"Play me"
00:16:35.244 : en:No espace?
00:24:12.659 : en:The Jigsaw Killer
00:32:29.530 : en:Suspect
00:41:44.043 : en:The only one to escape
00:46:56.647 : en:Family Values
00:54:56.209 : en:Hostages
00:58:47.607 : en:A break through
01:02:49.056 : en:Closing in
01:06:43.666 : en:Riddles
01:10:49.578 : en:Trickery
01:13:27.694 : en:Remembering
01:17:53.960 : en:Stalking Lawrence
01:22:24.064 : en:Intruder at home
01:29:38.998 : en:Out of time
01:33:04.537 : en:Natural conclusion
01:38:48.505 : en:The end?

Скриншоты

Пила 2 / Saw II 1080p BDRip
Режиссерская Версия / Director's Cut
Год выпуска: 2005
Страна: США, Канада
Жанр: ужасы, криминал, детектив
Продолжительность: 01:34:32
Перевод 1: Профессиональный (полное дублирование)
Перевод 2: Профессиональный (двухголосый закадровый) - П. Гланц и И. Королёва
Перевод 3: Профессиональный (двухголосый закадровый) - Tycoon
Перевод 4: Авторский (одноголосый закадровый) - Ю. Немахов
Перевод 5: Авторский (одноголосый закадровый) - А. Дольский
Перевод 6: Одноголосый закадровый - madrid
Перевод 7: Профессиональный (двухголосый закадровый) - ТВ3
Субтитры: Russian, English
Слоган: «О да, крови будет много»
Режиссер: Даррен Линн Боусман / Darren Lynn Bousman
В ролях: Тобин Белл, Шоуни Смит, Донни Уолберг, Эрик Кнудсен, Фрэнки Джи, Гленн Пламмер, Эммануэль Вожье, Беверли Митчелл, Тим Берд, Дина Мейер
Описание: Во время расследования подробностей кровавых деяний неизвестного убийцы детектив Эрик Мэтьюс ловит себя на мысли, что они очень похожи на работу Пилы — известного маньяка, который смог исчезнуть, оставив за собой множество жертв. Метьюс оказывается прав. Пила снова взялся за свое ужасное ремесло. Только на этот раз вместо двух людей, он запирает в комнате смерти с единственных способом выбраться живым, сразу восемь человек. Восемь никак не связанных друг с другом незнакомцев оказываются вынуждены вступить в игру сумасшедшего убийцы, ставками в которой будут их жизни…

Качество: BDRip 1080p by SbR
Формат: MKV
Видео: 1920x1080 at 23.976 fps, x264@L4.1, ~16200 kbps avg
Аудио#1: Russian: 48 kHz, DTS, 5.1, ~1536.00 kbps avg |Дубляж|
Аудио#2: Russian: 48 kHz, DTS-ES, 6.1, ~1536.00 kbps avg |Двухголосый закадровый, П. Гланц и И. Королёва|
Аудио#3: Russian: 48 kHz, AC3, 5.1, ~448.00 kbps avg |Двухголосый закадровый, Tycoon|
Аудио#4: Russian: 48 kHz, DTS-ES, 6.1, ~1536.00 kbps avg |Одноголосый закадровый, Ю. Немахов|
Аудио#5: Russian: 48 kHz, AC3, 5.1, ~448.00 kbps avg |Одноголосый закадровый, А. Дольский|
Аудио#6: Russian: 48 kHz, DTS-ES, 6.1, ~1536.00 kbps avg |Одноголосый закадровый, madrid|
Аудио#7: Russian: 48 kHz, 2.0, ~192.00 kbps avg |Многоголосый закадровый, ТВ3|
Аудио#8: Ukrainian: 48 kHz, AC3, 5.1, ~384.00 kbps avg |Многоголосый закадровый, ICTV|
Аудио#9: English: 48 kHz, DTS-ES, 6.1, ~1536.00 kbps avg

Знаете ли вы, что...

» Решение о запуске в производство второй части фильма было принято сразу же по окончании дебютного уикенда оригинального фильма. Премьера также была назначена на Хэллоуин.
» Съемки фильма длились 25 дней.
» Режиссер картины — Дарен Линн Боусман написал сценарий под названием «Безнадега» (The Desperate) еще два года назад, но ни одна студия не соглашалась дать добро на постановку полнометражной картины на основе данного скрипта.
» После успеха первого фильма Даррену предложили переработать свой сценарий с учетом специфики и атмосферы «Пилы», а также возглавить съемочный процесс. Дарен с радостью согласился.
» Весь съемочный процесс проходил в одном здании.
» По требованию MPAA создателям фильма пришлось отозвать уже поступившие в кинотеатры постеры, т. к. на них были изображены два отрубленных пальца, что противоречит правилам рекламирования фильма.
» В начальной сцене фильма Дарен Линн Боусман сыграл Конструктора, когда он зашивает ключ в глаз Майкла.
» В яме со шприцами было около 120 000 шприцов.
» Сцену, в которой детектив Мэтьюс идет по холлу, для того чтобы забрать своего сына из полицейского участка, снимали в костюмерной для актеров.
» Шоуни Смит была беременна во время съёмок фильма, но она никому не сказала об этом.
» Большинство актеров не получило последние 25 страниц сценария. Только актеры, участвующие в последней сцене, знали развязку фильма.
» Четыре человека на протяжении четырех дней заменяли настоящие иглы резиновыми для ямы со шприцами.
» Имя Конструктора — Джон Крамер.

MediaInfo

General
Unique ID : 172127324912250459494651987268618313505 (0x817E84557F2D5B0C8ABC91A34DEA5F21)
Complete name : F:\мае\Фильмы\Saw.The.Complete.Collection.1080p.BluRay.Rus.Ukr.Eng.HDCLUB-SbR\Saw.II.2005.1080p.BluRay.7xRus.Ukr.Eng.HDCLUB-SbR.mkv
Format : Matroska
Format version : Version 4 / Version 2
File size : 16.7 GiB
Duration : 1h 34mn
Overall bit rate : 25.2 Mbps
Movie name : Saw II (2005) - Release for HDCLUB by SbR
Encoded date : UTC 2013-07-10 08:02:59
Writing application : mkvmerge v6.2.0 ('Promised Land') built on Apr 28 2013 12:22:01
Writing library : libebml v1.3.0 + libmatroska v1.4.0
Attachment : Yes / Yes
Video
ID : 1
Format : AVC
Format/Info : Advanced Video Codec
Format profile : High@L4.1
Format settings, CABAC : Yes
Format settings, ReFrames : 4 frames
Codec ID : V_MPEG4/ISO/AVC
Duration : 1h 34mn
Bit rate : 16.2 Mbps
Width : 1 920 pixels
Height : 1 080 pixels
Display aspect ratio : 16:9
Frame rate mode : Constant
Frame rate : 23.976 fps
Color space : YUV
Chroma subsampling : 4:2:0
Bit depth : 8 bits
Scan type : Progressive
Bits/(Pixel*Frame) : 0.326
Stream size : 10.4 GiB (62%)
Title : Release for HDCLUB
Writing library : x264 core 133 r2334kMod a3ac64b
Encoding settings : cabac=1 / ref=4 / deblock=1:-2:-2 / analyse=0x3:0x113 / me=umh / subme=11 / psy=1 / fade_compensate=0.00 / psy_rd=1.00:0.00 / mixed_ref=1 / me_range=48 / chroma_me=1 / trellis=2 / 8x8dct=1 / cqm=0 / deadzone=21,11 / fast_pskip=0 / chroma_qp_offset=-2 / threads=12 / lookahead_threads=2 / sliced_threads=0 / nr=0 / decimate=1 / interlaced=0 / bluray_compat=0 / constrained_intra=0 / bframes=8 / b_pyramid=2 / b_adapt=2 / b_bias=0 / direct=3 / weightb=1 / open_gop=0 / weightp=2 / keyint=250 / keyint_min=23 / scenecut=40 / intra_refresh=0 / rc_lookahead=40 / rc=2pass / mbtree=0 / bitrate=16200 / ratetol=1.0 / qcomp=0.70 / qpmin=0 / qpmax=69 / qpstep=4 / cplxblur=20.0 / qblur=0.5 / vbv_maxrate=62500 / vbv_bufsize=78125 / nal_hrd=none / ip_ratio=1.25 / pb_ratio=1.15 / aq=1:0.70
Language : English
Default : Yes
Forced : No
Color primaries : BT.709
Transfer characteristics : BT.709
Matrix coefficients : BT.709
Audio #1
ID : 2
Format : DTS
Format/Info : Digital Theater Systems
Mode : 16
Format settings, Endianness : Big
Codec ID : A_DTS
Duration : 1h 34mn
Bit rate mode : Constant
Bit rate : 1 510 Kbps
Channel(s) : 6 channels
Channel positions : Front: L C R, Side: L R, LFE
Sampling rate : 48.0 KHz
Bit depth : 24 bits
Compression mode : Lossy
Stream size : 1 021 MiB (6%)
Title : Dub
Language : Russian
Default : Yes
Forced : No
Audio #2
ID : 3
Format : DTS
Format/Info : Digital Theater Systems
Format profile : ES
Mode : 16
Format settings, Endianness : Big
Codec ID : A_DTS
Duration : 1h 34mn
Bit rate mode : Constant
Bit rate : 1 509 Kbps
Channel(s) : 7 channels / 6 channels
Channel positions : Front: L C R, Side: L R, Back: C, LFE / Front: L C R, Side: L R, LFE
Sampling rate : 48.0 KHz
Bit depth : 24 bits
Compression mode : Lossy
Stream size : 1 020 MiB (6%)
Title : DVO, Glanz & Koroleva
Language : Russian
Default : No
Forced : No
Audio #3
ID : 4
Format : AC-3
Format/Info : Audio Coding 3
Mode extension : CM (complete main)
Format settings, Endianness : Big
Codec ID : A_AC3
Duration : 1h 34mn
Bit rate mode : Constant
Bit rate : 448 Kbps
Channel(s) : 6 channels
Channel positions : Front: L C R, Side: L R, LFE
Sampling rate : 48.0 KHz
Bit depth : 16 bits
Compression mode : Lossy
Stream size : 303 MiB (2%)
Title : DVO, Tycoon
Language : Russian
Default : No
Forced : No
Audio #4
ID : 5
Format : DTS
Format/Info : Digital Theater Systems
Format profile : ES
Mode : 16
Format settings, Endianness : Big
Codec ID : A_DTS
Duration : 1h 34mn
Bit rate mode : Constant
Bit rate : 1 509 Kbps
Channel(s) : 7 channels / 6 channels
Channel positions : Front: L C R, Side: L R, Back: C, LFE / Front: L C R, Side: L R, LFE
Sampling rate : 48.0 KHz
Bit depth : 24 bits
Compression mode : Lossy
Stream size : 1 020 MiB (6%)
Title : VO, Nemahov
Language : Russian
Default : No
Forced : No
Audio #5
ID : 6
Format : AC-3
Format/Info : Audio Coding 3
Mode extension : CM (complete main)
Format settings, Endianness : Big
Codec ID : A_AC3
Duration : 1h 34mn
Bit rate mode : Constant
Bit rate : 448 Kbps
Channel(s) : 6 channels
Channel positions : Front: L C R, Side: L R, LFE
Sampling rate : 48.0 KHz
Bit depth : 16 bits
Compression mode : Lossy
Stream size : 303 MiB (2%)
Title : VO, Dol`skii`
Language : Russian
Default : No
Forced : No
Audio #6
ID : 7
Format : DTS
Format/Info : Digital Theater Systems
Format profile : ES
Mode : 16
Format settings, Endianness : Big
Codec ID : A_DTS
Duration : 1h 34mn
Bit rate mode : Constant
Bit rate : 1 509 Kbps
Channel(s) : 7 channels / 6 channels
Channel positions : Front: L C R, Side: L R, Back: C, LFE / Front: L C R, Side: L R, LFE
Sampling rate : 48.0 KHz
Bit depth : 24 bits
Compression mode : Lossy
Stream size : 1 020 MiB (6%)
Title : VO, madrid
Language : Russian
Default : No
Forced : No
Audio #7
ID : 8
Format : AC-3
Format/Info : Audio Coding 3
Mode extension : CM (complete main)
Format settings, Endianness : Big
Codec ID : A_AC3
Duration : 1h 34mn
Bit rate mode : Constant
Bit rate : 192 Kbps
Channel(s) : 2 channels
Channel positions : Front: L R
Sampling rate : 48.0 KHz
Bit depth : 16 bits
Compression mode : Lossy
Stream size : 130 MiB (1%)
Title : MVO, TV3
Language : Russian
Default : No
Forced : No
Audio #8
ID : 9
Format : AC-3
Format/Info : Audio Coding 3
Mode extension : CM (complete main)
Format settings, Endianness : Big
Codec ID : A_AC3
Duration : 1h 34mn
Bit rate mode : Constant
Bit rate : 384 Kbps
Channel(s) : 6 channels
Channel positions : Front: L C R, Side: L R, LFE
Sampling rate : 48.0 KHz
Bit depth : 16 bits
Compression mode : Lossy
Stream size : 260 MiB (2%)
Title : MVO, ICTV
Language : Ukrainian
Default : No
Forced : No
Audio #9
ID : 10
Format : DTS
Format/Info : Digital Theater Systems
Format profile : ES
Mode : 16
Format settings, Endianness : Big
Codec ID : A_DTS
Duration : 1h 34mn
Bit rate mode : Constant
Bit rate : 1 509 Kbps
Channel(s) : 7 channels / 6 channels
Channel positions : Front: L C R, Side: L R, Back: C, LFE / Front: L C R, Side: L R, LFE
Sampling rate : 48.0 KHz
Bit depth : 24 bits
Compression mode : Lossy
Stream size : 1 020 MiB (6%)
Title : DTS-ES 6.1 @ 1536 kbps
Language : English
Default : No
Forced : No
Text #1
ID : 11
Format : UTF-8
Codec ID : S_TEXT/UTF8
Codec ID/Info : UTF-8 Plain Text
Language : Russian
Default : No
Forced : No
Text #2
ID : 12
Format : UTF-8
Codec ID : S_TEXT/UTF8
Codec ID/Info : UTF-8 Plain Text
Language : English
Default : No
Forced : No
Menu
00:00:00.000 : en:Main Titles/Death Mask
00:04:50.248 : en:Jigsaw's Pattern
00:06:54.789 : en:He Asked for You!
00:09:13.886 : en:Is This Close Enough?
00:10:49.065 : en:Oh Yes, There Will Be Blood
00:15:14.038 : en:Let the Game Begin
00:22:01.611 : en:It's Not a Fortress
00:34:05.626 : en:The Survival Instinct
00:43:00.619 : en:You Did This
00:50:32.446 : en:The Knowledge of Death
01:00:37.258 : en:Why Did He Pick You?
01:04:26.654 : en:Needle in a Haystack
01:08:31.565 : en:They Remember You
01:09:44.763 : en:Head Trauma
01:11:58.814 : en:X Marks the Spot
01:19:51.161 : en:Help Me!
01:23:00.976 : en:Location Lock
01:28:48.906 : en:I Cannot See You

Скриншоты

Пила 3 / Saw III 1080p BDRip
Режиссерская Версия / Director's Cut
Год выпуска: 2006
Страна: США, Канада
Жанр: ужасы, триллер, криминал
Продолжительность: 01:53:45
Перевод 1: Профессиональный (полное дублирование)
Перевод 2: Профессиональный (многоголосый закадровый) - Киномания
Перевод 3: Профессиональный (многоголосый закадровый)
Перевод 4: Профессиональный (двухголосый закадровый) - П. Гланц и И. Королёва
Перевод 5: Авторский (одноголосый закадровый) - Ю. Немахов
Перевод 6: Одноголосый закадровый - madrid
Субтитры: Russian, English
Слоган: «В каждой игре есть свои лазейки»
Режиссер: Даррен Линн Боусман / Darren Lynn Bousman
В ролях: Тобин Белл, Шоуни Смит, Энгус МакФадьен, Бахар Сумех, Донни Уолберг, Дина Мейер, Ли Уоннелл, Мфо Коахо, Бэрри Флэтмэн, Лайрик Бент
Описание: Изобретатель зловещих игр остается безнаказанным и в итоге бесследно исчезает вместе со своей сообщницей Амандой. В то время, как детективы тщетно пытаются выйти на его след, доктор Линн Денлон становится очередной жертвой этого маньяка.
Однажды ночью Линн похищают и привозят в заброшенный склад, где она встречается с самим злодеем, находящимся на смертном одре. Ей приказывают сохранять жизнь этому безумцу, пока Джефф, еще одна из его жертв, не доведет до конца начатую с ним «игру»…

Качество: BDRip 1080p by SbR
Формат: MKV
Видео: 1920x1080 at 23.976 fps, x264@L4.1, ~11000 kbps avg
Аудио#1: Russian: 48 kHz, DTS, 5.1, ~1536.00 kbps avg |Дубляж|
Аудио#2: Russian: 48 kHz, AC3, 5.1, ~448.00 kbps avg |Многоголосый закадровый, Киномания|
Аудио#3: Russian: 48 kHz, AC3, 5.1, ~448.00 kbps avg |Многоголосый закадровый|
Аудио#4: Russian: 48 kHz, DTS-ES, 6.1, ~1536.00 kbps avg |Двухголосый закадровый, П. Гланц и И. Королёва|
Аудио#5: Russian: 48 kHz, DTS-ES, 6.1, ~1536.00 kbps avg |Одноголосый закадровый, Ю. Немахов|
Аудио#6: Russian: 48 kHz, DTS-ES, 6.1, ~1536.00 kbps avg |Одноголосый закадровый, madrid|
Аудио#7: Ukrainian: 48 kHz, AC3, 2.0, ~384.00 kbps avg |Многоголосый закадровый, ICTV|
Аудио#8: English: 48 kHz, DTS-ES, 6.1, ~1536.00 kbps avg

Знаете ли вы, что...

» Ли Уоннелл написал сценарий фильма за одну неделю.
» В основу сценария положен сюжет Джеймса Ванна (одного из сценаристов и режиссера «Пилы» (2004)).
» Продюсеры фильма одолжили декорации туалета у создателей «Очень страшного кино 4» (2006). Дело в том, что данные декорации в точности повторяли декорации из «Пилы» (2004) и «Пилы 2» (2005).
» Предполагалось, что Донни Уолберг снова исполнит роль детектива Эрика Мэтьюса. Данный персонаж должен был присутствовать во флэшбеках, но еще до начала съёмок Уолберг покинул проект из-за творческих разногласий.
» По словам Даррена Боусмана, многие сюжетные ходы были позаимствованы из сообщений на форуме www.houseofjigsaw.com.
» Фильм посвящен памяти Грегга Хоффмана, продюсера первых двух фильмов, который ушел из жизни в декабре 2005 года.
» В 2006 году заключением комиссии Госрегистра под N 331 фильм включён в список запрещённых к распространению в Республике Беларусь.
» Фильм переделывали семь раз, чтобы получить рейтинг R.
» Корбетт названа в честь подруги Ли Уонелла Корбетт Так.
» Изначально ловушка, в которую была помещена Керри, должны была вырывать ее конечности, но позже эта ловушка была переделана.
» Изначально планировалось сделать жертвой для морозильника полицейского. Когда же было принято решение, что в морозильник будет помещена Дэника, то изначально она должна была быть одета в футболку и трусы.
» Было снято несколько версий сцены, в которой Джефф убивает Джона. Единственное различие между сценами — это оружие, при помощи которого он осуществляет свою месть.

MediaInfo

General
Unique ID : 223047505731987977943835491076506591763 (0xA7CD631476E2C45D96C05195C92B2213)
Complete name : F:\мае\Фильмы\Saw.The.Complete.Collection.1080p.BluRay.Rus.Ukr.Eng.HDCLUB-SbR\Saw.III.2006.1080p.BluRay.6xRus.Ukr.Eng.HDCLUB-SbR.mkv
Format : Matroska
Format version : Version 4 / Version 2
File size : 15.6 GiB
Duration : 1h 54mn
Overall bit rate : 19.6 Mbps
Movie name : Saw III (2006) - Release for HDCLUB by SbR
Encoded date : UTC 2013-06-29 07:50:32
Writing application : mkvmerge v6.2.0 ('Promised Land') built on Apr 28 2013 12:22:01
Writing library : libebml v1.3.0 + libmatroska v1.4.0
Attachment : Yes / Yes
Video
ID : 1
Format : AVC
Format/Info : Advanced Video Codec
Format profile : High@L4.1
Format settings, CABAC : Yes
Format settings, ReFrames : 4 frames
Codec ID : V_MPEG4/ISO/AVC
Duration : 1h 54mn
Bit rate : 11.0 Mbps
Width : 1 916 pixels
Height : 1 080 pixels
Display aspect ratio : 16:9
Frame rate mode : Constant
Frame rate : 23.976 fps
Color space : YUV
Chroma subsampling : 4:2:0
Bit depth : 8 bits
Scan type : Progressive
Bits/(Pixel*Frame) : 0.222
Stream size : 8.41 GiB (54%)
Title : Release for HDCLUB
Writing library : x264 core 133 r2334kMod a3ac64b
Encoding settings : cabac=1 / ref=4 / deblock=1:-2:-2 / analyse=0x3:0x113 / me=umh / subme=11 / psy=1 / fade_compensate=0.00 / psy_rd=1.00:0.00 / mixed_ref=1 / me_range=48 / chroma_me=1 / trellis=2 / 8x8dct=1 / cqm=0 / deadzone=21,11 / fast_pskip=0 / chroma_qp_offset=-2 / threads=12 / lookahead_threads=2 / sliced_threads=0 / nr=0 / decimate=1 / interlaced=0 / bluray_compat=0 / constrained_intra=0 / bframes=8 / b_pyramid=2 / b_adapt=2 / b_bias=0 / direct=3 / weightb=1 / open_gop=0 / weightp=2 / keyint=250 / keyint_min=23 / scenecut=40 / intra_refresh=0 / rc_lookahead=40 / rc=2pass / mbtree=0 / bitrate=11000 / ratetol=1.0 / qcomp=0.70 / qpmin=0 / qpmax=69 / qpstep=4 / cplxblur=20.0 / qblur=0.5 / vbv_maxrate=62500 / vbv_bufsize=78125 / nal_hrd=none / ip_ratio=1.25 / pb_ratio=1.15 / aq=1:0.70
Language : English
Default : Yes
Forced : No
Color primaries : BT.709
Transfer characteristics : BT.709
Matrix coefficients : BT.709
Audio #1
ID : 2
Format : DTS
Format/Info : Digital Theater Systems
Mode : 16
Format settings, Endianness : Big
Codec ID : A_DTS
Duration : 1h 54mn
Bit rate mode : Constant
Bit rate : 1 510 Kbps
Channel(s) : 6 channels
Channel positions : Front: L C R, Side: L R, LFE
Sampling rate : 48.0 KHz
Bit depth : 24 bits
Compression mode : Lossy
Stream size : 1.20 GiB (8%)
Title : Dub
Language : Russian
Default : Yes
Forced : No
Audio #2
ID : 3
Format : AC-3
Format/Info : Audio Coding 3
Mode extension : CM (complete main)
Format settings, Endianness : Big
Codec ID : A_AC3
Duration : 1h 54mn
Bit rate mode : Constant
Bit rate : 448 Kbps
Channel(s) : 6 channels
Channel positions : Front: L C R, Side: L R, LFE
Sampling rate : 48.0 KHz
Bit depth : 16 bits
Compression mode : Lossy
Stream size : 366 MiB (2%)
Title : MVO, Kinomania
Language : Russian
Default : No
Forced : No
Audio #3
ID : 4
Format : AC-3
Format/Info : Audio Coding 3
Mode extension : CM (complete main)
Format settings, Endianness : Big
Codec ID : A_AC3
Duration : 1h 54mn
Bit rate mode : Constant
Bit rate : 448 Kbps
Channel(s) : 6 channels
Channel positions : Front: L C R, Side: L R, LFE
Sampling rate : 48.0 KHz
Bit depth : 16 bits
Compression mode : Lossy
Stream size : 366 MiB (2%)
Title : MVO
Language : Russian
Default : No
Forced : No
Audio #4
ID : 5
Format : DTS
Format/Info : Digital Theater Systems
Format profile : ES
Mode : 16
Format settings, Endianness : Big
Codec ID : A_DTS
Duration : 1h 54mn
Bit rate mode : Constant
Bit rate : 1 509 Kbps
Channel(s) : 7 channels / 6 channels
Channel positions : Front: L C R, Side: L R, Back: C, LFE / Front: L C R, Side: L R, LFE
Sampling rate : 48.0 KHz
Bit depth : 24 bits
Compression mode : Lossy
Stream size : 1.20 GiB (8%)
Title : DVO, Glanz & Koroleva
Language : Russian
Default : No
Forced : No
Audio #5
ID : 6
Format : DTS
Format/Info : Digital Theater Systems
Format profile : ES
Mode : 16
Format settings, Endianness : Big
Codec ID : A_DTS
Duration : 1h 54mn
Bit rate mode : Constant
Bit rate : 1 509 Kbps
Channel(s) : 7 channels / 6 channels
Channel positions : Front: L C R, Side: L R, Back: C, LFE / Front: L C R, Side: L R, LFE
Sampling rate : 48.0 KHz
Bit depth : 24 bits
Compression mode : Lossy
Stream size : 1.20 GiB (8%)
Title : VO, Nemahov
Language : Russian
Default : No
Forced : No
Audio #6
ID : 7
Format : DTS
Format/Info : Digital Theater Systems
Format profile : ES
Mode : 16
Format settings, Endianness : Big
Codec ID : A_DTS
Duration : 1h 54mn
Bit rate mode : Constant
Bit rate : 1 509 Kbps
Channel(s) : 7 channels / 6 channels
Channel positions : Front: L C R, Side: L R, Back: C, LFE / Front: L C R, Side: L R, LFE
Sampling rate : 48.0 KHz
Bit depth : 24 bits
Compression mode : Lossy
Stream size : 1.20 GiB (8%)
Title : VO, madrid
Language : Russian
Default : No
Forced : No
Audio #7
ID : 8
Format : AC-3
Format/Info : Audio Coding 3
Mode extension : CM (complete main)
Format settings, Endianness : Big
Codec ID : A_AC3
Duration : 1h 54mn
Bit rate mode : Constant
Bit rate : 192 Kbps
Channel(s) : 2 channels
Channel positions : Front: L R
Sampling rate : 48.0 KHz
Bit depth : 16 bits
Compression mode : Lossy
Stream size : 157 MiB (1%)
Title : MVO, ICTV
Language : Ukrainian
Default : No
Forced : No
Audio #8
ID : 9
Format : DTS
Format/Info : Digital Theater Systems
Format profile : ES
Mode : 16
Format settings, Endianness : Big
Codec ID : A_DTS
Duration : 1h 54mn
Bit rate mode : Constant
Bit rate : 1 509 Kbps
Channel(s) : 7 channels / 6 channels
Channel positions : Front: L C R, Side: L R, Back: C, LFE / Front: L C R, Side: L R, LFE
Sampling rate : 48.0 KHz
Bit depth : 24 bits
Compression mode : Lossy
Stream size : 1.20 GiB (8%)
Language : English
Default : No
Forced : No
Text #1
ID : 10
Format : UTF-8
Codec ID : S_TEXT/UTF8
Codec ID/Info : UTF-8 Plain Text
Language : Russian
Default : No
Forced : No
Text #2
ID : 11
Format : UTF-8
Codec ID : S_TEXT/UTF8
Codec ID/Info : UTF-8 Plain Text
Language : English
Default : No
Forced : No
Menu
00:00:00.000 : en:Trapped
00:05:00.675 : en:Is It Him?
00:13:31.227 : en:Dagerous Footage
00:18:51.213 : en:Make You Choice
00:26:05.438 : en:Simple Question
00:31:11.035 : en:Test Subjects
00:40:52.491 : en:Game of Life
00:45:06.328 : en:Dylan's Doll
00:51:07.314 : en:Out of the Box
00:58:31.216 : en:Cold Hearted Feelings
01:12:01.191 : en:Tools to Save a Life
01:20:23.276 : en:Stronger Now
01:24:04.789 : en:Wordly Possessions
01:30:39.183 : en:Remember Me?
01:37:14.662 : en:Brain Surgery
01:46:23.335 : en:State of Distress

Скриншоты

Пила 4 / Saw IV 1080p BDRip
Режиссерская Версия / Director's Cut
Год выпуска: 2007
Страна: США, Канада
Жанр: ужасы, триллер, криминал
Продолжительность: 01:35:32
Перевод 1: Профессиональный (полное дублирование)
Перевод 2: Профессиональный (многоголосый закадровый) - Киномания
Перевод 3: Авторский (одноголосый закадровый) - Ю. Немахов
Перевод 4: Одноголосый закадровый - madrid
Субтитры: Russian, English, Ukrainian (forced)
Слоган: «Это западня»
Режиссер: Даррен Линн Боусман / Darren Lynn Bousman
В ролях: Тобин Белл, Костас Мэндилор, Скотт Паттерсон, Бетси Расселл, Лайрик Бент, Афена Карканис, Джастин Луис, Саймон Рейнольдс, Донни Уолберг, Энгус МакФадьен
Описание: Получив известие об убийстве детектива Кэрри, два опытных сотрудника ФБР, агент Стрэм и агент Перез, прибывают в полицейский участок, чтобы помочь старому детективу Хоффману проанализировать последнюю ужасную игру Пилы и соединить все части головоломки.
Однако, когда капитан Ригг, последний полицейский, нетронутый Пилой, оказывается похищен и вовлечен в чудовищную игру маньяка, у офицера остается лишь девяносто минут, чтобы обнаружить ряд взаимосвязанных ловушек… или оказаться перед лицом их беспощадных последствий.
В то время, как Ригга по всему городу преследуют следы трупов, детектив Хоффман и ФБР обнаруживают глубоко спрятанные ключи к разгадке, которые приводят их назад к бывшей жене Пилы — Джил.

Качество: BDRip 1080p by SbR
Формат: MKV
Видео: 1920x1080 at 23.976 fps, x264@L4.1, ~16000 kbps avg
Аудио#1: Russian: 48 kHz, DTS, 5.1, ~1536.00 kbps avg |Дубляж|
Аудио#2: Russian: 48 kHz, AC3, 5.1, ~448.00 kbps avg |Многоголосый закадровый, Киномания|
Аудио#3: Russian: 48 kHz, DTS, 5.1, ~1536.00 kbps avg |Одноголосый закадровый, Ю. Немахов|
Аудио#4: Russian: 48 kHz, DTS, 5.1, ~1536.00 kbps avg |Одноголосый закадровый, madrid|
Аудио#5: Ukrainian: 48 kHz, AC3, 2.0, ~192.00 kbps avg |Многоголосый закадровый, ICTV|
Аудио#6: English: 48 kHz, DTS, 5.1, ~1536.00 kbps avg

Знаете ли вы, что...

» Изначально Донни Уолберг отказался от роли Эрика из-за плотного графика.
» Режиссёр Даррен Линн Боусман изначально не хотел снимать четвёртую серию, но, прочитав предложенный продюсерами сценарий, изменил своё мнение.
» Четвёртой части дали «зеленый свет» ещё до того, как началась работа над третьей.
» Первая из частей сериала, в написании сценария для которой не участвовали Ли Уоннелл и Джеймс Ван — создатели оригинального фильма.
» Элисон Лютер (девочка, с которой беседует Ригг в школе) — племянница режиссёра.
» Фильм был снят за 32 дня.
» Режиссерская версия длиннее обычной на 4 минуты.

MediaInfo

General
Unique ID : 181426367020103193574131647781704818770 (0x887D7281E51F60BC9111DE178FD3E052)
Complete name : F:\мае\Фильмы\Saw.The.Complete.Collection.1080p.BluRay.Rus.Ukr.Eng.HDCLUB-SbR\Saw.IV.2007.1080p.BluRay.4xRus.Ukr.Eng.HDCLUB-SbR.mkv
Format : Matroska
Format version : Version 4 / Version 2
File size : 15.1 GiB
Duration : 1h 35mn
Overall bit rate : 22.6 Mbps
Movie name : Saw IV (2007) - Release for HDCLUB by SbR
Encoded date : UTC 2013-07-08 09:09:27
Writing application : mkvmerge v6.2.0 ('Promised Land') built on Apr 28 2013 12:22:01
Writing library : libebml v1.3.0 + libmatroska v1.4.0
Attachment : Yes / Yes
Video
ID : 1
Format : AVC
Format/Info : Advanced Video Codec
Format profile : High@L4.1
Format settings, CABAC : Yes
Format settings, ReFrames : 4 frames
Codec ID : V_MPEG4/ISO/AVC
Duration : 1h 35mn
Bit rate : 16.0 Mbps
Width : 1 920 pixels
Height : 1 080 pixels
Display aspect ratio : 16:9
Frame rate mode : Constant
Frame rate : 23.976 fps
Color space : YUV
Chroma subsampling : 4:2:0
Bit depth : 8 bits
Scan type : Progressive
Bits/(Pixel*Frame) : 0.322
Stream size : 10.3 GiB (69%)
Title : Release for HDCLUB
Writing library : x264 core 133 r2334kMod a3ac64b
Encoding settings : cabac=1 / ref=4 / deblock=1:-2:-2 / analyse=0x3:0x113 / me=umh / subme=11 / psy=1 / fade_compensate=0.00 / psy_rd=1.10:0.07 / mixed_ref=1 / me_range=48 / chroma_me=1 / trellis=2 / 8x8dct=1 / cqm=0 / deadzone=21,11 / fast_pskip=0 / chroma_qp_offset=-3 / threads=12 / lookahead_threads=2 / sliced_threads=0 / nr=0 / decimate=1 / interlaced=0 / bluray_compat=0 / constrained_intra=0 / bframes=8 / b_pyramid=2 / b_adapt=2 / b_bias=0 / direct=3 / weightb=1 / open_gop=0 / weightp=2 / keyint=250 / keyint_min=23 / scenecut=40 / intra_refresh=0 / rc_lookahead=40 / rc=2pass / mbtree=0 / bitrate=16000 / ratetol=1.0 / qcomp=0.80 / qpmin=0 / qpmax=69 / qpstep=4 / cplxblur=20.0 / qblur=0.5 / vbv_maxrate=62500 / vbv_bufsize=78125 / nal_hrd=none / ip_ratio=1.40 / pb_ratio=1.30 / aq=1:0.60
Language : English
Default : Yes
Forced : No
Color primaries : BT.709
Transfer characteristics : BT.709
Matrix coefficients : BT.709
Audio #1
ID : 2
Format : DTS
Format/Info : Digital Theater Systems
Mode : 16
Format settings, Endianness : Big
Codec ID : A_DTS
Duration : 1h 35mn
Bit rate mode : Constant
Bit rate : 1 510 Kbps
Channel(s) : 6 channels
Channel positions : Front: L C R, Side: L R, LFE
Sampling rate : 48.0 KHz
Bit depth : 24 bits
Compression mode : Lossy
Stream size : 1.01 GiB (7%)
Title : Dub
Language : Russian
Default : Yes
Forced : No
Audio #2
ID : 3
Format : AC-3
Format/Info : Audio Coding 3
Mode extension : CM (complete main)
Format settings, Endianness : Big
Codec ID : A_AC3
Duration : 1h 35mn
Bit rate mode : Constant
Bit rate : 448 Kbps
Channel(s) : 6 channels
Channel positions : Front: L C R, Side: L R, LFE
Sampling rate : 48.0 KHz
Bit depth : 16 bits
Compression mode : Lossy
Stream size : 306 MiB (2%)
Title : MVO, Kinomania
Language : Russian
Default : No
Forced : No
Audio #3
ID : 4
Format : DTS
Format/Info : Digital Theater Systems
Mode : 16
Format settings, Endianness : Big
Codec ID : A_DTS
Duration : 1h 35mn
Bit rate mode : Constant
Bit rate : 1 509 Kbps
Channel(s) : 6 channels
Channel positions : Front: L C R, Side: L R, LFE
Sampling rate : 48.0 KHz
Bit depth : 24 bits
Compression mode : Lossy
Stream size : 1.01 GiB (7%)
Title : VO, Nemahov
Language : Russian
Default : No
Forced : No
Audio #4
ID : 5
Format : DTS
Format/Info : Digital Theater Systems
Mode : 16
Format settings, Endianness : Big
Codec ID : A_DTS
Duration : 1h 35mn
Bit rate mode : Constant
Bit rate : 1 509 Kbps
Channel(s) : 6 channels
Channel positions : Front: L C R, Side: L R, LFE
Sampling rate : 48.0 KHz
Bit depth : 24 bits
Compression mode : Lossy
Stream size : 1.01 GiB (7%)
Title : VO, Madrid
Language : Russian
Default : No
Forced : No
Audio #5
ID : 6
Format : AC-3
Format/Info : Audio Coding 3
Mode extension : CM (complete main)
Format settings, Endianness : Big
Codec ID : A_AC3
Duration : 1h 35mn
Bit rate mode : Constant
Bit rate : 192 Kbps
Channel(s) : 2 channels
Channel positions : Front: L R
Sampling rate : 48.0 KHz
Bit depth : 16 bits
Compression mode : Lossy
Stream size : 131 MiB (1%)
Title : MVO, ICTV
Language : Ukrainian
Default : No
Forced : No
Audio #6
ID : 7
Format : DTS
Format/Info : Digital Theater Systems
Mode : 16
Format settings, Endianness : Big
Codec ID : A_DTS
Duration : 1h 35mn
Bit rate mode : Constant
Bit rate : 1 509 Kbps
Channel(s) : 6 channels
Channel positions : Front: L C R, Side: L R, LFE
Sampling rate : 48.0 KHz
Bit depth : 24 bits
Compression mode : Lossy
Stream size : 1.01 GiB (7%)
Language : English
Default : No
Forced : No
Text #1
ID : 8
Format : UTF-8
Codec ID : S_TEXT/UTF8
Codec ID/Info : UTF-8 Plain Text
Language : Russian
Default : No
Forced : No
Text #2
ID : 9
Format : UTF-8
Codec ID : S_TEXT/UTF8
Codec ID/Info : UTF-8 Plain Text
Language : English
Default : No
Forced : No
Text #3
ID : 10
Format : UTF-8
Codec ID : S_TEXT/UTF8
Codec ID/Info : UTF-8 Plain Text
Title : forced
Language : Ukrainian
Default : No
Forced : No
Menu
00:00:00.000 : en:Play Me
00:06:09.409 : en:Holding the Key
00:09:35.199 : en:Cherish Your Life
00:15:11.911 : en:Special Agent Assistance
00:19:04.101 : en:Time to Let Go
00:25:55.302 : en:Not Your Call
00:32:19.062 : en:Facing Obsession
00:39:46.634 : en:Beneath the Mask
00:43:11.880 : en:Brenda's Game
00:46:39.463 : en:Two Detectives
00:50:52.799 : en:It's You
00:52:39.739 : en:Saving Lives
01:01:20.718 : en:What You've Been Looking For
01:06:18.516 : en:Try That
01:17:38.362 : en:Making Choices
01:24:57.216 : en:Opening the Door

Скриншоты

Пила 5 / Saw V 1080p BDRip
Режиссерская Версия / Director's Cut
Год выпуска: 2008
Страна: США, Канада
Жанр: ужасы, триллер, криминал
Продолжительность: 01:35:04
Перевод 1: Профессиональный (полное дублирование)
Перевод 2: Авторский (одноголосый закадровый) - Ю. Живов
Перевод 3: Авторский (одноголосый закадровый) - Ю. Немахов
Субтитры: Russian (forced), Russian, English
Слоган: «Ты не поверишь, чем это закончится»
Режиссер: Дэвид Хэкл / David Hackl
В ролях: Тобин Белл, Костас Мэндилор, Скотт Паттерсон, Бетси Расселл, Джули Бенц, Миган Гуд, Марк Ролстон, Карло Рота, Грег Брайк, Лаура Гордон
Описание: Один из последователей маньяка-убийцы Пилы, Марк Хоффман, следуя заветам своего кровавого гуру, готовит очередную смертельную головоломку. Тем временем агент Страм начинает догадываться о связи Хоффмана с Пилой, и Хоффману приходится выйти на новую охоту, чтобы уничтожить все ниточки, ведущие к нему. Пятерых незнакомым друг с другом людей уже ждет жестокий урок командной игры на выживание — еще больше крови, еще изощреннее ловушки… Страм идет по следам Хоффмана, пытаясь докопаться до причин, по которым он присоединился к Пиле. Их ждет встреча лицом к лицу в преддверии неотвратимого и непредсказуемого финала.

Качество: BDRip 1080p by SbR
Формат: MKV
Видео: 1920x1080 at 23.976 fps, x264@L4.1, ~14500 kbps avg
Аудио#1: Russian: 48 kHz, DTS, 5.1, ~1536.00 kbps avg |Дубляж|
Аудио#2: Russian: 48 kHz, DTS, 5.1, ~1536.00 kbps avg |Одноголосый закадровый, Ю. Живов|
Аудио#3: Russian: 48 kHz, DTS, 5.1, ~1536.00 kbps avg |Одноголосый закадровый, Ю. Немахов|
Аудио#4: Ukrainian: 48 kHz, AC3, 5.1, ~384.00 kbps avg |Двухголосый закадровый|
Аудио#5: English: 48 kHz, DTS, 5.1, ~1536.00 kbps avg

Знаете ли вы, что...

» По словам режиссера фильма Дэвида Хэкла, для постановки новых оригинальных ловушек Конструктора, в качестве наглядного материала использовался DVD с записями реальных несчастных случаев на производстве, катастроф, дорожных происшествий.
» Одну из ловушек Конструктора придумал сын Дэвида Хэкла.
» На создание ловушки Сета создателей вдохновил рассказ Эдгара Алана По «Колодец и Маятник».
» В сцене где агент Эриксон (Марк Ролстон) беседует с Джилл в своем кабинете, на его столе настоящая фотография Ролстона с супругой.
» Дэнни Гловер собирался вернуться в «Пилу», сыграв небольшой эпизод своим персонажем во флэшбэке, однако отказался от такого шанса из-за съемок в фильме «Слепота» (Blindness).
» На 6-й минуте фильма, когда в запертой комнате детектив смотрит на телефон, чтобы позвонить, на дисплее высвечивается мигающая надпись «No signal found» («Нет сети»). Одновременно индикатор (слева вверху) сервиса на экране показывает «полный» уровень. Вероятнее всего, надпись отображает обычная заставка.

MediaInfo

General
Unique ID : 219193636766718051176144980885196112123 (0xA4E728AB7EE3AFA3A9868D2FFDF600FB)
Complete name : F:\мае\Фильмы\Saw.The.Complete.Collection.1080p.BluRay.Rus.Ukr.Eng.HDCLUB-SbR\Saw.V.2008.1080p.BluRay.3xRus.Ukr.Eng.HDCLUB-SbR.mkv
Format : Matroska
Format version : Version 4 / Version 2
File size : 13.9 GiB
Duration : 1h 35mn
Overall bit rate : 20.9 Mbps
Movie name : Saw V (2008) - Release for HDCLUB by SbR
Encoded date : UTC 2013-07-10 10:20:32
Writing application : mkvmerge v6.2.0 ('Promised Land') built on Apr 28 2013 12:22:01
Writing library : libebml v1.3.0 + libmatroska v1.4.0
Attachment : Yes / Yes
Video
ID : 1
Format : AVC
Format/Info : Advanced Video Codec
Format profile : High@L4.1
Format settings, CABAC : Yes
Format settings, ReFrames : 4 frames
Codec ID : V_MPEG4/ISO/AVC
Duration : 1h 35mn
Bit rate : 14.5 Mbps
Width : 1 920 pixels
Height : 1 080 pixels
Display aspect ratio : 16:9
Frame rate mode : Constant
Frame rate : 23.976 fps
Color space : YUV
Chroma subsampling : 4:2:0
Bit depth : 8 bits
Scan type : Progressive
Bits/(Pixel*Frame) : 0.292
Stream size : 9.35 GiB (67%)
Title : Release for HDCLUB
Writing library : x264 core 135 r2345kMod f0c1c53
Encoding settings : cabac=1 / ref=4 / deblock=1:-2:-2 / analyse=0x3:0x113 / me=umh / subme=11 / psy=1 / fade_compensate=0.00 / psy_rd=1.10:0.05 / mixed_ref=1 / me_range=48 / chroma_me=1 / trellis=2 / 8x8dct=1 / cqm=0 / deadzone=21,11 / fast_pskip=0 / chroma_qp_offset=-3 / threads=12 / lookahead_threads=3 / sliced_threads=0 / nr=0 / decimate=1 / interlaced=0 / bluray_compat=0 / constrained_intra=0 / bframes=10 / b_pyramid=2 / b_adapt=2 / b_bias=0 / direct=3 / weightb=1 / open_gop=0 / weightp=2 / keyint=250 / keyint_min=23 / scenecut=40 / intra_refresh=0 / rc_lookahead=40 / rc=2pass / mbtree=0 / bitrate=14500 / ratetol=1.0 / qcomp=0.75 / qpmin=0 / qpmax=69 / qpstep=4 / cplxblur=20.0 / qblur=0.5 / vbv_maxrate=62500 / vbv_bufsize=78125 / nal_hrd=none / ip_ratio=1.25 / pb_ratio=1.15 / aq=1:0.80
Language : English
Default : Yes
Forced : No
Color primaries : BT.709
Transfer characteristics : BT.709
Matrix coefficients : BT.709
Audio #1
ID : 2
Format : DTS
Format/Info : Digital Theater Systems
Mode : 16
Format settings, Endianness : Big
Codec ID : A_DTS
Duration : 1h 35mn
Bit rate mode : Constant
Bit rate : 1 510 Kbps
Channel(s) : 6 channels
Channel positions : Front: L C R, Side: L R, LFE
Sampling rate : 48.0 KHz
Bit depth : 24 bits
Compression mode : Lossy
Stream size : 1.00 GiB (7%)
Title : Dub
Language : Russian
Default : Yes
Forced : No
Audio #2
ID : 3
Format : DTS
Format/Info : Digital Theater Systems
Mode : 16
Format settings, Endianness : Big
Codec ID : A_DTS
Duration : 1h 35mn
Bit rate mode : Constant
Bit rate : 1 509 Kbps
Channel(s) : 6 channels
Channel positions : Front: L C R, Side: L R, LFE
Sampling rate : 48.0 KHz
Bit depth : 24 bits
Compression mode : Lossy
Stream size : 1.00 GiB (7%)
Title : VO, Jivov
Language : Russian
Default : No
Forced : No
Audio #3
ID : 4
Format : DTS
Format/Info : Digital Theater Systems
Mode : 16
Format settings, Endianness : Big
Codec ID : A_DTS
Duration : 1h 35mn
Bit rate mode : Constant
Bit rate : 1 509 Kbps
Channel(s) : 6 channels
Channel positions : Front: L C R, Side: L R, LFE
Sampling rate : 48.0 KHz
Bit depth : 24 bits
Compression mode : Lossy
Stream size : 1.00 GiB (7%)
Title : VO, Nemahov
Language : Russian
Default : No
Forced : No
Audio #4
ID : 5
Format : AC-3
Format/Info : Audio Coding 3
Mode extension : CM (complete main)
Format settings, Endianness : Big
Codec ID : A_AC3
Duration : 1h 35mn
Bit rate mode : Constant
Bit rate : 384 Kbps
Channel(s) : 6 channels
Channel positions : Front: L C R, Side: L R, LFE
Sampling rate : 48.0 KHz
Bit depth : 16 bits
Compression mode : Lossy
Stream size : 261 MiB (2%)
Title : DVO
Language : Ukrainian
Default : No
Forced : No
Audio #5
ID : 6
Format : DTS
Format/Info : Digital Theater Systems
Mode : 16
Format settings, Endianness : Big
Codec ID : A_DTS
Duration : 1h 35mn
Bit rate mode : Constant
Bit rate : 1 509 Kbps
Channel(s) : 6 channels
Channel positions : Front: L C R, Side: L R, LFE
Sampling rate : 48.0 KHz
Bit depth : 24 bits
Compression mode : Lossy
Stream size : 1.00 GiB (7%)
Language : English
Default : No
Forced : No
Text #1
ID : 7
Format : UTF-8
Codec ID : S_TEXT/UTF8
Codec ID/Info : UTF-8 Plain Text
Title : forced
Language : Russian
Default : Yes
Forced : No
Text #2
ID : 8
Format : UTF-8
Codec ID : S_TEXT/UTF8
Codec ID/Info : UTF-8 Plain Text
Language : Russian
Default : No
Forced : No
Text #3
ID : 9
Format : ASS
Codec ID : S_TEXT/ASS
Codec ID/Info : Advanced Sub Station Alpha
Compression mode : Lossless
Language : English
Default : No
Forced : No
Menu
00:00:00.000 : en:In Your Hands
00:06:10.787 : en:Making Advances
00:12:15.484 : en:New Game
00:15:25.716 : en:Last Word
00:22:02.446 : en:True Justice
00:28:42.720 : en:Raising Questions
00:34:33.446 : en:Connected
00:36:41.115 : en:A Jigsaw Murder
00:42:15.533 : en:What About You?
00:49:40.686 : en:Safety Chambers
00:51:51.733 : en:Crossed the Line
01:00:23.036 : en:Distasteful Ways
01:05:29.258 : en:On the Inside
01:11:33.038 : en:Someone Had to Die
01:17:09.458 : en:Taking a Closer Look
01:25:30.708 : en:Bridging the Gap

Скриншоты

Пила 6 / Saw VI 1080p BDRip
Режиссерская Версия / Director's Cut
Год выпуска: 2009
Страна: Канада, США, Великобритания, Австралия
Жанр: ужасы, триллер, криминал
Продолжительность: 01:31:38
Перевод 1: Профессиональный (полное дублирование)
Перевод 2: Авторский (одноголосый закадровый) - Ю. Немахов
Субтитры: Russian, English, Ukrainian
Слоган: «6 заданий, 6 попыток, 6 вариантов»
Режиссер: Кевин Гротерт / Kevin Greutert
В ролях: Тобин Белл, Костас Мэндилор, Марк Ролстон, Бетси Расселл, Шоуни Смит, Питер Аутербридж, Афена Карканис, Саманта Лемоул, Танедра Ховард, Марти Моро
Описание: Специальный агент Страм мертв и нет никаких сомнений в том, что детектив Хоффман является продолжателем дела Конструктора. Но когда ФБР садится ему на след, он вынужден вновь начать Игру, наконец-то расставляющую все точки над "и" в грандиозном плане Конструктора.

Качество: BDRip 1080p by HDC
Формат: MKV
Видео: 1920x1080 at 23.976 fps, x264@L4.1, ~14957 kbps avg
Аудио#1: Russian: 48 kHz, AC3, 5.1, ~448.00 kbps avg |Дубляж|
Аудио#2: Russian: 48 kHz, DTS, 5.1, ~1536.00 kbps avg |Одноголосый закадровый, Ю. Немахов|
Аудио#3: Ukrainian: 48 kHz, AC3, 5.1, ~384.00 kbps avg |Дубляж|
Аудио#4: English: 48 kHz, DTS, 5.1, ~1536.00 kbps avg

MediaInfo

General
Unique ID : 205691315946817596360941389045523184731 (0x9ABEB4DB1A3EEDD39167B821F7FA7C5B)
Complete name : F:\мае\Фильмы\Saw.The.Complete.Collection.1080p.BluRay.Rus.Ukr.Eng.HDCLUB-SbR\Saw.VI.2009.1080p.BluRay.2xRus.Ukr.Eng.HDCLUB.mkv
Format : Matroska
Format version : Version 4 / Version 2
File size : 12.0 GiB
Duration : 1h 31mn
Overall bit rate : 18.8 Mbps
Movie name : Saw VI (2009) - Release for HDCLUB
Encoded date : UTC 2013-07-09 16:07:14
Writing application : mkvmerge v6.2.0 ('Promised Land') built on Apr 28 2013 12:22:01
Writing library : libebml v1.3.0 + libmatroska v1.4.0
Attachment : Yes
Video
ID : 1
Format : AVC
Format/Info : Advanced Video Codec
Format profile : High@L4.1
Format settings, CABAC : Yes
Format settings, ReFrames : 5 frames
Codec ID : V_MPEG4/ISO/AVC
Duration : 1h 31mn
Bit rate : 15.0 Mbps
Width : 1 920 pixels
Height : 1 080 pixels
Display aspect ratio : 16:9
Frame rate mode : Constant
Frame rate : 23.976 fps
Color space : YUV
Chroma subsampling : 4:2:0
Bit depth : 8 bits
Scan type : Progressive
Bits/(Pixel*Frame) : 0.301
Stream size : 9.34 GiB (78%)
Title : Release for HDCLUB
Writing library : x264 core 84 r1400M 20fa784
Encoding settings : cabac=1 / ref=5 / deblock=1:-3:-3 / analyse=0x3:0x113 / me=umh / subme=9 / psy=1 / psy_rd=1.4:0.0 / mixed_ref=1 / me_range=24 / chroma_me=1 / trellis=2 / 8x8dct=1 / cqm=0 / deadzone=21,11 / fast_pskip=1 / chroma_qp_offset=-2 / threads=6 / sliced_threads=0 / nr=0 / decimate=1 / mbaff=0 / constrained_intra=0 / bframes=6 / b_pyramid=2 / b_adapt=2 / b_bias=0 / direct=3 / wpredb=1 / wpredp=2 / keyint=250 / keyint_min=25 / scenecut=40 / intra_refresh=0 / rc_lookahead=80 / rc=2pass / mbtree=1 / bitrate=14957 / ratetol=1.0 / qcomp=0.80 / qpmin=10 / qpmax=51 / qpstep=4 / cplxblur=20.0 / qblur=0.5 / ip_ratio=1.40 / aq=1:0.75 / pulldown=0 / nal_hrd=0
Language : English
Default : Yes
Forced : No
Audio #1
ID : 2
Format : AC-3
Format/Info : Audio Coding 3
Mode extension : CM (complete main)
Format settings, Endianness : Big
Codec ID : A_AC3
Duration : 1h 31mn
Bit rate mode : Constant
Bit rate : 448 Kbps
Channel(s) : 6 channels
Channel positions : Front: L C R, Side: L R, LFE
Sampling rate : 48.0 KHz
Bit depth : 16 bits
Compression mode : Lossy
Stream size : 294 MiB (2%)
Title : Dub
Language : Russian
Default : Yes
Forced : No
Audio #2
ID : 3
Format : DTS
Format/Info : Digital Theater Systems
Mode : 16
Format settings, Endianness : Big
Codec ID : A_DTS
Duration : 1h 31mn
Bit rate mode : Constant
Bit rate : 1 509 Kbps
Channel(s) : 6 channels
Channel positions : Front: L C R, Side: L R, LFE
Sampling rate : 48.0 KHz
Bit depth : 24 bits
Compression mode : Lossy
Stream size : 989 MiB (8%)
Title : VO, Nemahov
Language : Russian
Default : No
Forced : No
Audio #3
ID : 4
Format : AC-3
Format/Info : Audio Coding 3
Mode extension : CM (complete main)
Format settings, Endianness : Big
Codec ID : A_AC3
Duration : 1h 31mn
Bit rate mode : Constant
Bit rate : 384 Kbps
Channel(s) : 6 channels
Channel positions : Front: L C R, Side: L R, LFE
Sampling rate : 48.0 KHz
Bit depth : 16 bits
Compression mode : Lossy
Stream size : 252 MiB (2%)
Title : Dub
Language : Ukrainian
Default : No
Forced : No
Audio #4
ID : 5
Format : DTS
Format/Info : Digital Theater Systems
Mode : 16
Format settings, Endianness : Big
Codec ID : A_DTS
Duration : 1h 31mn
Bit rate mode : Constant
Bit rate : 1 509 Kbps
Channel(s) : 6 channels
Channel positions : Front: L C R, Side: L R, LFE
Sampling rate : 48.0 KHz
Bit depth : 24 bits
Compression mode : Lossy
Stream size : 989 MiB (8%)
Language : English
Default : No
Forced : No
Text #1
ID : 6
Format : UTF-8
Codec ID : S_TEXT/UTF8
Codec ID/Info : UTF-8 Plain Text
Language : Russian
Default : No
Forced : No
Text #2
ID : 7
Format : UTF-8
Codec ID : S_TEXT/UTF8
Codec ID/Info : UTF-8 Plain Text
Language : English
Default : No
Forced : No
Text #3
ID : 8
Format : UTF-8
Codec ID : S_TEXT/UTF8
Codec ID/Info : UTF-8 Plain Text
Language : Ukrainian
Default : No
Forced : No
Menu
00:00:00.000 : en:00:00:00.000
00:07:59.437 : en:00:07:59.437
00:16:58.976 : en:00:16:58.976
00:26:07.357 : en:00:26:07.357
00:37:02.262 : en:00:37:02.262
00:48:13.849 : en:00:48:13.849
00:57:30.489 : en:00:57:30.489
01:08:35.111 : en:01:08:35.111
01:18:20.571 : en:01:18:20.571
01:27:54.478 : en:01:27:54.478

Скриншоты

Пила 3D / Saw 3D 1080p BDRip
Режиссерская Версия / Director's Cut
Год выпуска: 2010
Страна: США
Жанр: ужасы, триллер, детектив, криминал
Продолжительность: 01:30:11
Перевод 1: Профессиональный (полное дублирование)
Перевод 2: Авторский (одноголосый закадровый) - А. Гаврилов
Субтитры: Russian, Ukrainian, English
Слоган: «Ловушки оживают»
Режиссер: Кевин Гротерт / Kevin Greutert
В ролях: Костас Мэндилор, Шон Патрик Флэнери, Тобин Белл, Кэри Элвис, Бетси Расселл, Дин Армстронг, Чэд Донелла, Джина Холден, Наоми Сникус, Ребекка Маршалл
Описание: Жертвы Пилы, выжившие в предыдущих испытаниях, обращаются за психологической помощью к товарищу по несчастью Бобби Дагену. Но когда его собственные темные тайны всплывают на свет, развязывается новая волна террора.

Качество: BDRip 1080p by SbR
Формат: MKV
Видео: 1920x1080 at 23.976 fps, x264@L4.1, ~15000 kbps avg
Аудио#1: Russian: 48 kHz, DTS, 5.1, ~1536.00 kbps avg |Дубляж|
Аудио#2: Russian: 48 kHz, AC3, 2.0, ~192.00 kbps avg |Одноголосый закадровый, А. Гаврилов|
Аудио#3: Ukrainian: 48 kHz, AC3, 5.1, ~384.00 kbps avg |Многоголосый закадровый|
Аудио#4: English: 48 kHz, DTS, 5.1, ~1536.00 kbps avg

MediaInfo

General
Unique ID : 211342561505626201004049118122797603262 (0x9EFF18C618CDCECAB569F8F2289299BE)
Complete name : F:\мае\Фильмы\Saw.The.Complete.Collection.1080p.BluRay.Rus.Ukr.Eng.HDCLUB-SbR\Saw.3D.2010.1080p.BluRay.2xRus.Ukr.Eng.HDCLUB-SbR.mkv
Format : Matroska
Format version : Version 4 / Version 2
File size : 11.7 GiB
Duration : 1h 30mn
Overall bit rate : 18.6 Mbps
Movie name : Saw 3D (2010) - Release for HDCLUB by SbR
Encoded date : UTC 2013-07-10 07:19:31
Writing application : mkvmerge v6.2.0 ('Promised Land') built on Apr 28 2013 12:22:01
Writing library : libebml v1.3.0 + libmatroska v1.4.0
Attachment : Yes / Yes
Video
ID : 1
Format : AVC
Format/Info : Advanced Video Codec
Format profile : High@L4.1
Format settings, CABAC : Yes
Format settings, ReFrames : 4 frames
Codec ID : V_MPEG4/ISO/AVC
Duration : 1h 30mn
Bit rate : 15.0 Mbps
Width : 1 920 pixels
Height : 1 080 pixels
Display aspect ratio : 16:9
Frame rate mode : Constant
Frame rate : 23.976 fps
Color space : YUV
Chroma subsampling : 4:2:0
Bit depth : 8 bits
Scan type : Progressive
Bits/(Pixel*Frame) : 0.302
Stream size : 9.21 GiB (79%)
Title : Release for HDCLUB
Writing library : x264 core 135 r2345kMod f0c1c53
Encoding settings : cabac=1 / ref=4 / deblock=1:-2:-2 / analyse=0x3:0x113 / me=umh / subme=11 / psy=1 / fade_compensate=0.00 / psy_rd=1.00:0.00 / mixed_ref=1 / me_range=48 / chroma_me=1 / trellis=2 / 8x8dct=1 / cqm=0 / deadzone=21,11 / fast_pskip=0 / chroma_qp_offset=-2 / threads=12 / lookahead_threads=2 / sliced_threads=0 / nr=0 / decimate=1 / interlaced=0 / bluray_compat=0 / constrained_intra=0 / bframes=8 / b_pyramid=2 / b_adapt=2 / b_bias=0 / direct=3 / weightb=1 / open_gop=0 / weightp=2 / keyint=250 / keyint_min=23 / scenecut=40 / intra_refresh=0 / rc_lookahead=40 / rc=2pass / mbtree=0 / bitrate=15000 / ratetol=1.0 / qcomp=0.70 / qpmin=0 / qpmax=69 / qpstep=4 / cplxblur=20.0 / qblur=0.5 / vbv_maxrate=62500 / vbv_bufsize=78125 / nal_hrd=none / ip_ratio=1.30 / pb_ratio=1.30 / aq=1:0.80
Language : English
Default : Yes
Forced : No
Color primaries : BT.709
Transfer characteristics : BT.709
Matrix coefficients : BT.709
Audio #1
ID : 2
Format : DTS
Format/Info : Digital Theater Systems
Mode : 16
Format settings, Endianness : Big
Codec ID : A_DTS
Duration : 1h 30mn
Bit rate mode : Constant
Bit rate : 1 509 Kbps
Channel(s) : 6 channels
Channel positions : Front: L C R, Side: L R, LFE
Sampling rate : 48.0 KHz
Bit depth : 24 bits
Compression mode : Lossy
Stream size : 973 MiB (8%)
Title : Dub
Language : Russian
Default : Yes
Forced : No
Audio #2
ID : 3
Format : AC-3
Format/Info : Audio Coding 3
Mode extension : CM (complete main)
Format settings, Endianness : Big
Codec ID : A_AC3
Duration : 1h 30mn
Bit rate mode : Constant
Bit rate : 192 Kbps
Channel(s) : 2 channels
Channel positions : Front: L R
Sampling rate : 48.0 KHz
Bit depth : 16 bits
Compression mode : Lossy
Stream size : 124 MiB (1%)
Title : VO, Gavrilov
Language : Russian
Default : No
Forced : No
Audio #3
ID : 4
Format : AC-3
Format/Info : Audio Coding 3
Mode extension : CM (complete main)
Format settings, Endianness : Big
Codec ID : A_AC3
Duration : 1h 30mn
Bit rate mode : Constant
Bit rate : 384 Kbps
Channel(s) : 6 channels
Channel positions : Front: L C R, Side: L R, LFE
Sampling rate : 48.0 KHz
Bit depth : 16 bits
Compression mode : Lossy
Stream size : 248 MiB (2%)
Title : MVO
Language : Ukrainian
Default : No
Forced : No
Audio #4
ID : 5
Format : DTS
Format/Info : Digital Theater Systems
Mode : 16
Format settings, Endianness : Big
Codec ID : A_DTS
Duration : 1h 30mn
Bit rate mode : Constant
Bit rate : 1 509 Kbps
Channel(s) : 6 channels
Channel positions : Front: L C R, Side: L R, LFE
Sampling rate : 48.0 KHz
Bit depth : 24 bits
Compression mode : Lossy
Stream size : 973 MiB (8%)
Language : English
Default : No
Forced : No
Text #1
ID : 6
Format : UTF-8
Codec ID : S_TEXT/UTF8
Codec ID/Info : UTF-8 Plain Text
Language : Russian
Default : No
Forced : No
Text #2
ID : 7
Format : UTF-8
Codec ID : S_TEXT/UTF8
Codec ID/Info : UTF-8 Plain Text
Language : Ukrainian
Default : No
Forced : No
Text #3
ID : 8
Format : UTF-8
Codec ID : S_TEXT/UTF8
Codec ID/Info : UTF-8 Plain Text
Language : English
Default : No
Forced : No
Menu
00:00:00.000 : en:Chapter 1
00:05:13.479 : en:Chapter 2
00:12:58.652 : en:Chapter 3
00:17:16.785 : en:Chapter 4
00:22:07.743 : en:Chapter 5
00:27:29.230 : en:Chapter 6
00:36:06.956 : en:Chapter 7
00:43:04.206 : en:Chapter 8
00:47:54.413 : en:Chapter 9
00:52:00.826 : en:Chapter 10
00:57:09.926 : en:Chapter 11
01:03:09.076 : en:Chapter 12
01:10:28.890 : en:Chapter 13
01:14:13.573 : en:Chapter 14
01:19:01.153 : en:Chapter 15
01:23:47.188 : en:Chapter 16

Скриншоты

[Цитировать]



Показать сообщения:    

Текущее время: 09-Дек 14:40

Часовой пояс: UTC + 3


Вы не можете начинать темы
Вы не можете отвечать на сообщения
Вы не можете редактировать свои сообщения
Вы не можете удалять свои сообщения
Вы не можете голосовать в опросах
Вы не можете прикреплять файлы к сообщениям
Вы не можете скачивать файлы

!ВНИМАНИЕ!
Сайт не предоставляет электронные версии произведений, а занимается лишь коллекционированием и каталогизацией ссылок, присылаемых и публикуемых на форуме нашими читателями. Если вы являетесь правообладателем какого-либо представленного материала и не желаете, чтобы ссылка на него находилась в нашем каталоге, свяжитесь с нами, и мы незамедлительно удалим ее. Файлы для обмена на трекере предоставлены пользователями сайта, и администрация не несет ответственности за их содержание. Просьба не заливать файлы, защищенные авторскими правами, а также файлы нелегального содержания!