[ Сегодня идет свободное скачивание без начисления Download ]


Статистика раздачи
Нет
 
   
 
Top  
 
 
Небраска / Nebraska
Страна: США
Жанр: драма, приключения
Год выпуска: 2013
Продолжительность: 01:54:43
Перевод: Одноголосый закадровый Алексей "Doctor Joker" Матвеев
Cубтитры: русские ( по переводу Doctor Joker от автора )
Оригинальная аудиодорожка: английский
Режиссер: Александр Пэйн / Alexander Payne
В ролях: Брюс Дерн, Уилл Форте, Джун Скуиб, Боб Оденкёрк, Стейси Кич, Рэнс Ховард, Мисси Доти, Кевин Кункель, Девин Рэтрей, Мелинда Симонсен
Описание: Вудроу Т. Грант получил письмо счастья. И в него поверил. Ну, а что взять с Вудроу? Он уже старый, у него начинается Альцгеймер, он алкоголик... Вот Вуди и отправляется в город Линкольн, штат Небраска, чтобы получить "обещанный" письмом счастья 1 000 000 долларов. А поможет ему в этом сын по имени Дэвид, который хоть и понимает, что это "разводка", но хочет подарить своему отцу немножко счастья... Трогательная и волшебная чёрно-белая трагикомедия режиссёра Александра Пэйна по праву заслужила место в категории номинантов премии "Оскар". Изумительное кино, смотреть - обязательно.
Доп. информация: сведение звука - sashock86
Сэмпл: http://rusfolder.com/39869253
Качество видео: BDRip 1080p ( рип был скачан в сети, источник неизвестен )
Формат видео: MKV
Видео: 8035 Кбит / сек, 1920*800 ( 2,40:1 ), в 23,976 кадра / сек, AVC
Аудио: Русский: 1510 Кбит / сек, 48,0 Кгц, 24 бит, 5 каналов, DTS
Аудио 2: Английский: 1509 Кбит / сек, 48,0 Кгц, 24 бит, 3 канала, DTS
Формат субтитров: softsub (SRT)

MediaInfo

Уникальный идентификатор : 196814797919043552078019629093420991947 (0x941126BA5B5ECD4BAD92D4D7A11705CB)
Полное имя : E:\МОНТАЖ\НЕБРАСКА\НЕБРАСКА.mkv
Формат : Matroska
Версия формата : Version 4 / Version 2
Размер файла : 8,86 Гбайт
Продолжительность : 1 ч. 54 м.
Общий поток : 11,1 Мбит/сек
Дата кодирования : UTC 2014-02-16 15:40:42
Программа кодирования : mkvmerge v6.7.0 ('Back to the Ground') 64bit built on Jan 8 2014 15:10:52
Библиотека кодирования : libebml v1.3.0 + libmatroska v1.4.1
Видео
Идентификатор : 1
Формат : AVC
Формат/Информация : Advanced Video Codec
Профиль формата : High@L4.1
Параметр CABAC формата : Да
Параметр ReFrames формата : 5 кадров
Идентификатор кодека : V_MPEG4/ISO/AVC
Продолжительность : 1 ч. 54 м.
Битрейт : 8035 Кбит/сек
Ширина : 1920 пикселей
Высота : 800 пикселей
Соотношение сторон : 2,40:1
Режим частоты кадров : Постоянный
Частота кадров : 23,976 кадра/сек
Цветовое пространство : YUV
Субдискретизация насыщенности : 4:2:0
Битовая глубина : 8 бит
Тип развёртки : Прогрессивная
Бит/(Пиксели*Кадры) : 0.218
Размер потока : 6,26 Гбайт (71%)
Заголовок : X264
Библиотека кодирования : x264 core 140 r2377 1ca7bb9
Настройки программы : cabac=1 / ref=5 / deblock=1:0:0 / analyse=0x3:0x133 / me=umh / subme=7 / psy=1 / psy_rd=1.00:0.00 / mixed_ref=1 / me_range=16 / chroma_me=1 / trellis=1 / 8x8dct=1 / cqm=0 / deadzone=21,11 / fast_pskip=0 / chroma_qp_offset=-2 / threads=12 / lookahead_threads=2 / sliced_threads=0 / nr=0 / decimate=1 / interlaced=0 / bluray_compat=0 / constrained_intra=0 / bframes=3 / b_pyramid=2 / b_adapt=1 / b_bias=0 / direct=1 / weightb=1 / open_gop=0 / weightp=2 / keyint=250 / keyint_min=23 / scenecut=40 / intra_refresh=0 / rc_lookahead=40 / rc=2pass / mbtree=1 / bitrate=8035 / ratetol=1.0 / qcomp=0.60 / qpmin=0 / qpmax=69 / qpstep=4 / cplxblur=20.0 / qblur=0.5 / ip_ratio=1.40 / aq=1:1.00
Язык : English
Default : Да
Forced : Нет
Аудио #1
Идентификатор : 2
Формат : DTS
Формат/Информация : Digital Theater Systems
Режим : 16
Параметр Endianness формата : Big
Идентификатор кодека : A_DTS
Продолжительность : 1 ч. 54 м.
Вид битрейта : Постоянный
Битрейт : 1510 Кбит/сек
Каналы : 5 каналов
Расположение каналов : Front: L C R, Side: L R
Частота : 48,0 КГц
Битовая глубина : 24 бит
Метод сжатия : С потерями
Размер потока : 1,21 Гбайт (14%)
Заголовок : Алексей Матвеев
Язык : Russian
Default : Нет
Forced : Да
Аудио #2
Идентификатор : 3
Формат : DTS
Формат/Информация : Digital Theater Systems
Режим : 16
Параметр Endianness формата : Big
Идентификатор кодека : A_DTS
Продолжительность : 1 ч. 54 м.
Вид битрейта : Постоянный
Битрейт : 1509 Кбит/сек
Каналы : 3 канала
Расположение каналов : Front: L C R
Частота : 48,0 КГц
Битовая глубина : 24 бит
Метод сжатия : С потерями
Размер потока : 1,21 Гбайт (14%)
Заголовок : DTS
Язык : English
Default : Нет
Forced : Нет
Текст
Идентификатор : 4
Формат : UTF-8
Идентификатор кодека : S_TEXT/UTF8
Идентификатор кодека/Информация : UTF-8 Plain Text
Default : Да
Forced : Нет
Меню
00:00:00.000 : en:00:00:00.000
00:06:32.601 : en:00:06:32.601
00:13:18.381 : en:00:13:18.381
00:18:09.630 : en:00:18:09.630
00:25:35.534 : en:00:25:35.534
00:31:17.084 : en:00:31:17.084
00:37:16.901 : en:00:37:16.901
00:46:10.601 : en:00:46:10.601
00:51:17.366 : en:00:51:17.366
00:55:07.846 : en:00:55:07.846
01:02:24.449 : en:01:02:24.449
01:08:19.178 : en:01:08:19.178
01:13:26.319 : en:01:13:26.319
01:21:13.952 : en:01:21:13.952
01:27:09.933 : en:01:27:09.933
01:32:20.118 : en:01:32:20.118
01:39:37.805 : en:01:39:37.805
01:48:59.032 : en:01:48:59.032

Скриншот c названием фильма

Скриншоты



[Цитировать]



Показать сообщения:    

Текущее время: 11-Дек 15:00

Часовой пояс: UTC + 3


Вы не можете начинать темы
Вы не можете отвечать на сообщения
Вы не можете редактировать свои сообщения
Вы не можете удалять свои сообщения
Вы не можете голосовать в опросах
Вы не можете прикреплять файлы к сообщениям
Вы не можете скачивать файлы

!ВНИМАНИЕ!
Сайт не предоставляет электронные версии произведений, а занимается лишь коллекционированием и каталогизацией ссылок, присылаемых и публикуемых на форуме нашими читателями. Если вы являетесь правообладателем какого-либо представленного материала и не желаете, чтобы ссылка на него находилась в нашем каталоге, свяжитесь с нами, и мы незамедлительно удалим ее. Файлы для обмена на трекере предоставлены пользователями сайта, и администрация не несет ответственности за их содержание. Просьба не заливать файлы, защищенные авторскими правами, а также файлы нелегального содержания!