[ Today is free to download without increasing Download ]

DL-List and Torrent activity
Лихорадка: Пациент Зеро / Cabin Fever: Patient Zero
«Лето. Море. Смерть»
- Год выпуска: 2014
Выпущено: США / Indomina Productions
Жанр: ужасы
Продолжительность: 01:34:50
Перевод: Двухголосый закадровый |DeadSno & den904|
Cубтитры: нет-Режиссер:
Кааре Эндрюс / Kaare Andrews-В ролях:
Шон Эстин (Porter), Карри Грэм (Dr. Edwards), Райан Доноху (Dobs), Брандо Итон (Josh), Джиллиан Мюррэй (Penny), Митч Райан (Marcus), Солли Дюран (Camila), Лидия Хёрст (Bridget), Клодетт Лали (Kate), Эрнесто Баез (Rodriguez)-Описание:
Молодая компания отправляется на Карибские острова, чтобы оттянуться перед свадьбой одного из друзей. Но на берегу лазурного океана, посреди вечного лета и райского блаженства ребята обнаруживают очаг смертоносной болезни… Вскоре начинается отчет жертв… Удастся ли кому-нибудь выжить?-Релиз группы | IMDB | КиноПоиск | Сэмпл |-Качество: BDRip [Cabin.Fever.Patient.Zero.2014.UNCUT.1080p.BluRay.AVC.DTS-HD.MA.7.1-PublicHD]
Формат: AVI
Видео: 720x304 (2.37:1), 23.976 fps, XviD build 73 ~1745 kbps avg, 0.33 bit/pixel
Аудио: 48 kHz, AC3 Dolby Digital, 3/2 (L,C,R,l,r) + LFE ch, ~448.00 kbps avg



Complete name                            : D:\Lihoradka_Paсient_Zero_2014_BDRip_by_Dalemake.avi
Format                                   : AVI
Format/Info                              : Audio Video Interleave
File size                                : 1.46 GiB
Duration                                 : 1h 34mn
Overall bit rate                         : 2 203 Kbps
Writing application                      : VirtualDubMod | www.virtualdub-fr.org || (build 2550/release)
Writing library                          : VirtualDubMod build 2550/release
ID                                       : 0
Format                                   : MPEG-4 Visual
Format profile                           : Advanced Simple@L5
Format settings, BVOP                    : 1
Format settings, QPel                    : No
Format settings, GMC                     : No warppoints
Format settings, Matrix                  : Custom
Codec ID                                 : XVID
Codec ID/Hint                            : XviD
Duration                                 : 1h 34mn
Bit rate                                 : 1 746 Kbps
Width                                    : 720 pixels
Height                                   : 304 pixels
Display aspect ratio                     : 2.35:1
Frame rate                               : 23.976 fps
Color space                              : YUV
Chroma subsampling                       : 4:2:0
Bit depth                                : 8 bits
Scan type                                : Progressive
Compression mode                         : Lossy
Bits/(Pixel*Frame)                       : 0.333
Stream size                              : 1.16 GiB (79%)
Writing library                          : XviD 73
ID                                       : 1
Format                                   : AC-3
Format/Info                              : Audio Coding 3
Mode extension                           : CM (complete main)
Format settings, Endianness              : Big
Codec ID                                 : 2000
Duration                                 : 1h 34mn
Bit rate mode                            : Constant
Bit rate                                 : 448 Kbps
Channel(s)                               : 6 channels
Channel positions                        : Front: L C R, Side: L R, LFE
Sampling rate                            : 48.0 KHz
Bit depth                                : 16 bits
Compression mode                         : Lossy
Stream size                              : 304 MiB (20%)
Alignment                                : Split accross interleaves
Interleave, duration                     : 42 ms (1.00 video frame)
Interleave, preload duration             : 500 ms


Топик был перенесен из форума Новинки кинопроката в форум Ужасы

Display posts:    

Current time is: 24-Oct 01:02

All times are UTC + 3

You cannot post new topics in this forum
You cannot reply to topics in this forum
You cannot edit your posts in this forum
You cannot delete your posts in this forum
You cannot vote in polls in this forum
You cannot attach files in this forum
You cannot download files in this forum

The site does not give electronic versions of products, and is engaged only in a collecting and cataloguing of the references sent and published at a forum by our readers. If you are the legal owner of any submitted material and do not wish that the reference to it was in our catalogue, contact us and we shall immediately remove her. Files for an exchange on tracker are given by users of a site, and the administration does not bear the responsibility for their maintenance. The request to not fill in the files protected by copyrights, and also files of the illegal maintenance!