[ Сегодня идет свободное скачивание без начисления Download ]


Статистика раздачи
Нет
 
   
 
Top  
 
 
-Тайна Рагнарока / Gaten Ragnarok (2013) HDRip
«All myths have an origin»
- Год выпуска: 2013
Производство: Норвегия / Fantefilm
Жанр: Приключения, фэнтези
Перевод: Одноголосый закадровый, любительский [datynet]
Субтитры: Отсутствуют
Дата мировой премьеры: 30 августа 2013
Режиссер: Миккел Бренне Сандемус / Mikkel Brenne Sandemose
Продюсер: Арье Хейденстром, Мартин Сандлэнд, Рой Андерсон
Актеры: Пол Сверре Валхейм Хаген, Николай Клеве Брош, Бьорн Сундквист, София Хелин, Мария Аннетт Тандерод Берглид, Джулиан Подольски, Йенс Хультен, Терье Стрёмдаль, Вера Руди
Описание фильма:
Археолог Сигерд Свендсен уже много лет одержим историей судна викингов Осберг. Единственная надпись, найденная на этом корабле написана на языке рун и гласит: «человек знает мало». Сигерд уверен, что судно Осберг скрывает ответ на тайну о Рагнароке — конце дней в норвежской мифологии. Когда его друг Аллан находит подобные руны на камне с севера Норвегии, Сигерд убеждается, что руны — это карта сокровищ. Вместе они отправляются в экспедицию, которая заводит их в «нейтральную зону» между Норвегией и Россией, которая не населена уже многие десятилетия. Здесь Сигерд находит истинное значение рун, которые хранят ужасающую тайну.

Продолжительность: 01:41:07
Качество видео: HDRip
Видеокодек: Xvid
Битрейт видео: ~1611 Кбит/сек
Размер кадра: 720x304
Аудиокодек: MP3 2.0
Битрейт аудио: 192 Кбит/сек

MediaInfo:

Общее
Полное имя                       : D:\Тайна.Рагнарока.2013.L1.HDRip.avi
Формат                           : AVI
Формат/Информация                : Audio Video Interleave
Размер файла                     : 1,28 Гбайт
Продолжительность                : 1 ч. 41 м.
Общий поток                      : 1813 Кбит/сек
Программа кодирования            : VirtualDubMod 1.5.10.3 | [url=http://www.virtualdub-fr.org]www.virtualdub-fr.org[/url] || (build 2550/release)
Библиотека кодирования           : VirtualDub build 34753/release
Видео
Идентификатор                    : 0
Формат                           : MPEG-4 Visual
Профиль формата                  : Advanced Simple@L5
Параметр BVOP формата            : 2
Параметр QPel формата            : Нет
Параметр GMC формата             : Без точки перехода
Параметр матрицы формата         : Выборочная
Идентификатор кодека             : XVID
Идентификатор кодека/Подсказка   : XviD
Продолжительность                : 1 ч. 41 м.
Битрейт                          : 1611 Кбит/сек
Ширина                           : 720 пикселей
Высота                           : 304 пикселя
Соотношение сторон               : 2,35:1
Частота кадров                   : 24,000 кадра/сек
Цветовое пространство            : YUV
Субдискретизация насыщенности    : 4:2:0
Битовая глубина                  : 8 бит
Тип развёртки                    : Прогрессивная
Метод сжатия                     : С потерями
Бит/(Пиксели*Кадры)              : 0.307
Размер потока                    : 1,14 Гбайт (89%)
Библиотека кодирования           : XviD 1.2.1 (UTC 2008-12-04)
Аудио
Идентификатор                    : 1
Формат                           : MPEG Audio
Версия формата                   : Version 1
Профиль формата                  : Layer 3
Идентификатор кодека             : 55
Идентификатор кодека/Подсказка   : MP3
Продолжительность                : 1 ч. 41 м.
Вид битрейта                     : Постоянный
Битрейт                          : 192 Кбит/сек
Каналы                           : 2 канала
Частота                          : 44,1 КГц
Метод сжатия                     : С потерями
Размер потока                    : 139 Мбайт (11%)
Выравнивание                     : Разделение по промежуткам
Продолжительность промежутка     : 42  мс. (1,00 видеокадр)
Время предзагрузки промежутка    : 500  мс.

Скриншоты:



Время раздачи: 16.30-23.00 до 5 скачавших

[Цитировать]



Показать сообщения:    

Текущее время: 09-Дек 14:40

Часовой пояс: UTC + 3


Вы не можете начинать темы
Вы не можете отвечать на сообщения
Вы не можете редактировать свои сообщения
Вы не можете удалять свои сообщения
Вы не можете голосовать в опросах
Вы не можете прикреплять файлы к сообщениям
Вы не можете скачивать файлы

!ВНИМАНИЕ!
Сайт не предоставляет электронные версии произведений, а занимается лишь коллекционированием и каталогизацией ссылок, присылаемых и публикуемых на форуме нашими читателями. Если вы являетесь правообладателем какого-либо представленного материала и не желаете, чтобы ссылка на него находилась в нашем каталоге, свяжитесь с нами, и мы незамедлительно удалим ее. Файлы для обмена на трекере предоставлены пользователями сайта, и администрация не несет ответственности за их содержание. Просьба не заливать файлы, защищенные авторскими правами, а также файлы нелегального содержания!