[ Сегодня идет свободное скачивание без начисления Download ]


Статистика раздачи
Нет
 
   
 
Top  
 
 
-Прекрасные создания / Beautiful Creatures (2013) BDRip
«Раскроются тёмные тайны»
- Год выпуска: 2013
Производство: США / Warner Bros. Entertainment
Жанр: Фэнтези, драма, мелодрама
Язык: Русский, английский
Перевод: Дублированный [лицензия]
Субтитры: Вшитые отключаемые
Язык субтитров: Английский
Режиссер: Ричард ЛаГравенес / Richard LaGravenese
Продюсер: Иоланда Т. Кохрэн, Бродерик Джонсон, Эндрю А. Косов
Актеры: Олден Эйренрайк, Элис Энглерт, Джереми Айронс, Виола Дэвис, Эмми Россам, Томас Манн, Эмма Томпсон, Айлин Эткинс, Марго Мартиндейл, Зои Дойч
Описание фильма:
Лена Дюкейн отличается от всех, кого когда-либо видел маленький южный город Гатлин, она борется с собой, пытаясь усмирить свою силу и проклятие, веками преследовавшее ее семью. Но даже в разросшихся садах, в мрачных болотах и на разрушенных могильниках позабытого Юга секрет не будет жить вечно. Итана Уэйта, считающего дни до своего бегства из Гатлина, преследуют сны о прекрасной девушке, которую он никогда не встречал. Когда Лена приезжает жить в дом на самой старой и самой жуткой из всех плантаций города, Итан безоговорочно влюбляется в нее и целенаправленно старается раскрыть секрет их удивительной связи.

Дата мировой премьеры: 13 февраля 2013
Дата российской премьеры: 14 февраля 2013, «West»
Дата выхода DVD релиза: 24 февраля 2014, «West Video»
Дата выхода Blu-Ray релиза: 24 февраля 2014, «West Video»
Рейтинг MPAA: PG-13
Возраст: 12+
Продолжительность: 02:03:44
Качество видео: BDRip [HDWinG]
Видео: MPEG4_AVC/H.264, 1920x800 (2.40:1), ~11600 kbps, 23.976 fps
Аудио 1: DTS 5.1, 1536 kbps, 48 kHz [Русский - дублированный]
Аудио 2: AC3 5.1, 640 kbps, 48 kHz [Русский - дублированный]
Аудио 3: DTS 5.1, 1536 kbps, 48 kHz [Английский - оригинал]

x264 log

x264 [info]: frame I:1308 Avg QP:15.91 size:201035
x264 [info]: frame P:36244 Avg QP:17.04 size:102161
x264 [info]: frame B:140460 Avg QP:18.32 size: 50494
x264 [info]: consecutive B-frames: 1.9% 4.1% 3.9% 15.8% 15.8% 30.6% 10.8% 14.2% 2.9%

MediaInfo

Полное имя : D:\Прекрасные.создания-Beautiful.Creatures.(2013).BDRip.[1080p].mkv
Формат : Matroska
Версия формата : Version 2
Размер файла : 13,5 Гбайт
Продолжительность : 2 ч. 3 м.
Общий поток : 15,6 Мбит/сек
Название фильма : Beautiful Creatures (2013)
Дата кодирования : UTC 2014-02-25 20:50:38
Программа кодирования : mkvmerge v6.7.0 ('Back to the Ground') 64bit built on Jan 8 2014 15:10:52
Библиотека кодирования : libebml v1.3.0 + libmatroska v1.4.1
Видео
Идентификатор : 1
Формат : AVC
Формат/Информация : Advanced Video Codec
Профиль формата : [email protected]
Параметр CABAC формата : Да
Параметр ReFrames формата : 5 кадров
Идентификатор кодека : V_MPEG4/ISO/AVC
Битрейт : 11,6 Мбит/сек
Ширина : 1920 пикселей
Высота : 800 пикселей
Соотношение сторон : 2,40:1
Режим частоты кадров : Переменный
Частота кадров в оригинале : 23,976 кадра/сек
Цветовое пространство : YUV
Субдискретизация насыщенности : 4:2:0
Битовая глубина : 8 бит
Тип развёртки : Прогрессивная
Заголовок : Прекрасные.создания-Beautiful.Creatures.(2013).BDRip.[1080p]
Библиотека кодирования : x264 core 130 r2274+704+40 24c804d tMod+MixAQ [[email protected]:2:0 X86_64]
Настройки программы : cabac=1 / ref=5 / deblock=1:-3:-3 / analyse=0x3:0x113 / me=umh / subme=11 / psy=1 / fade_compensate=0.00 / psy_rd=1.05:0.00 / mixed_ref=1 / me_range=48 / chroma_me=1 / trellis=2 / 8x8dct=1 / cqm=0 / deadzone=21,11 / fast_pskip=0 / chroma_qp_offset=-2 / threads=36 / lookahead_threads=6 / sliced_threads=0 / nr=0 / decimate=0 / interlaced=0 / bluray_compat=0 / constrained_intra=0 / fgo=0 / bframes=8 / b_pyramid=2 / b_adapt=2 / b_bias=0 / direct=3 / weightb=1 / open_gop=0 / weightp=2 / keyint=240 / keyint_min=24 / scenecut=40 / intra_refresh=0 / rc=crf / mbtree=0 / crf=17.8000 / qcomp=0.72 / qpmin=0 / qpmax=69 / qpstep=4 / ip_ratio=1.25 / pb_ratio=1.20 / aq=4:0.80 / aq-sensitivity=10.00 / aq-ifactor=1.00 / aq-pfactor=1.00 / aq-bfactor=1.00 / aq2=0
Язык : English
Default : Да
Forced : Нет
Аудио #1
Идентификатор : 2
Формат : DTS
Формат/Информация : Digital Theater Systems
Идентификатор кодека : A_DTS
Продолжительность : 2 ч. 3 м.
Вид битрейта : Постоянный
Битрейт : 1510 Кбит/сек
Каналы : 6 каналов
Расположение каналов : Front: L C R, Side: L R, LFE
Частота : 48,0 КГц
Битовая глубина : 16 бит
Метод сжатия : С потерями
Размер потока : 1,31 Гбайт (10%)
Заголовок : DTS 5.1 / 1536 kbps / Dub
Язык : Russian
Default : Да
Forced : Нет
Аудио #2
Идентификатор : 3
Формат : AC-3
Формат/Информация : Audio Coding 3
Расширение режима : CM (complete main)
Параметр Endianness формата : Big
Идентификатор кодека : A_AC3
Продолжительность : 2 ч. 3 м.
Вид битрейта : Постоянный
Битрейт : 640 Кбит/сек
Каналы : 6 каналов
Расположение каналов : Front: L C R, Side: L R, LFE
Частота : 48,0 КГц
Битовая глубина : 16 бит
Метод сжатия : С потерями
Размер потока : 567 Мбайт (4%)
Заголовок : AC3 5.1 / 640 kbps / Dub
Язык : Russian
Default : Нет
Forced : Нет
Аудио #3
Идентификатор : 4
Формат : DTS
Формат/Информация : Digital Theater Systems
Идентификатор кодека : A_DTS
Продолжительность : 2 ч. 3 м.
Вид битрейта : Постоянный
Битрейт : 1510 Кбит/сек
Каналы : 6 каналов
Расположение каналов : Front: L C R, Side: L R, LFE
Частота : 48,0 КГц
Битовая глубина : 24 бит
Метод сжатия : С потерями
Размер потока : 1,31 Гбайт (10%)
Заголовок : DTS 5.1 / 1536 kbps / Original
Язык : English
Default : Нет
Forced : Нет
Текст
Идентификатор : 5
Формат : UTF-8
Идентификатор кодека : S_TEXT/UTF8
Идентификатор кодека/Информация : UTF-8 Plain Text
Язык : English
Default : Нет
Forced : Нет
Меню
00:00:00.000 : en:00:00:00.000
00:09:38.036 : en:00:09:38.036
00:18:05.543 : en:00:18:05.543
00:28:05.058 : en:00:28:05.058
00:38:47.158 : en:00:38:47.158
00:49:34.054 : en:00:49:34.054
01:02:48.640 : en:01:02:48.640
01:11:04.510 : en:01:11:04.510
01:19:58.252 : en:01:19:58.252
01:28:35.393 : en:01:28:35.393
01:37:40.104 : en:01:37:40.104
01:52:17.564 : en:01:52:17.564
01:57:26.039 : en:01:57:26.039

Скриншоты:


Время раздачи: 24/7 (до 10 скачавших)

[Цитировать]



Показать сообщения:    

Текущее время: 05-Дек 01:29

Часовой пояс: UTC + 3


Вы не можете начинать темы
Вы не можете отвечать на сообщения
Вы не можете редактировать свои сообщения
Вы не можете удалять свои сообщения
Вы не можете голосовать в опросах
Вы не можете прикреплять файлы к сообщениям
Вы не можете скачивать файлы

!ВНИМАНИЕ!
Сайт не предоставляет электронные версии произведений, а занимается лишь коллекционированием и каталогизацией ссылок, присылаемых и публикуемых на форуме нашими читателями. Если вы являетесь правообладателем какого-либо представленного материала и не желаете, чтобы ссылка на него находилась в нашем каталоге, свяжитесь с нами, и мы незамедлительно удалим ее. Файлы для обмена на трекере предоставлены пользователями сайта, и администрация не несет ответственности за их содержание. Просьба не заливать файлы, защищенные авторскими правами, а также файлы нелегального содержания!