[ Сегодня идет свободное скачивание без начисления Download ]


Статистика раздачи
Нет
 
   
 
Top  
 
 
-Тайна Рагнарока / Gaten Ragnarok (2013) BDRip- Год выпуска: 2013
Производство: Норвегия, Fantefilm, Film i Vest, Ghost VFX
Жанр: Приключения, фэнтези
Перевод: Одноголосый закадровый, любительский |datynet|
Субтитры: Вшитые отключаемые
Язык субтитров: Русский, норвежский
Режиссер: Миккел Бренне Сандемус / Mikkel Brenne Sandemose
Актеры: Пол Сверре Валхейм Хаген, Николай Клеве Брош, Бьорн Сундквист, София Хелин, Мария Аннетт Тандерод Берглид, Джулиан Подольски, Йенс Хультен, Терье Стрёмдаль, Вера Руди
Описание фильма:
Археолог Сигур Свендсен уже много лет одержим историей судна викингов Осеберг. Единственная рунная надпись, найденная на этом корабле, гласит: «человек знает мало». Сигур уверен, что судно Осеберг скрывает ответ на тайну о Рагнароке — конце дней в скандинавской мифологии. Когда его друг Аллан находит подобные руны на камне с севера Норвегии, Сигур убеждается, что руны — это карта сокровищ. Вместе они отправляются в экспедицию, которая заводит их в «нейтральную зону» между Норвегией и Россией, которая не населена уже многие десятилетия. Здесь Сигур находит истинное значение рун, которые хранят ужасающую тайну.

Дата мировой премьеры: 30 августа 2013
Продолжительность: 01:41:07
Качество видео: BDRip 1080p
Видеокодек: MPEG-4 AVC/H.264
Видео: H264, 9369 Кбит/с, 1920x800, 24.000 кадр/с
Аудио #1: Русский: MP3, 2.0, 192 Кбит/с, 48kHz, 16 bit
Аудио #2: Норвежский: DTS, 5.1, 1536 Кбит/с, 48 kHz, 24 bit
Сохранены оригинальные чаптеры как на Blu-Ray

MediaInfo:

Общее
Уникальный идентификатор : 254129102417511293308522104635714044223 (0xBF2F7C1C6AD41905AEE805CD5BC2013F)
Полное имя : D:\Video\Gaten.Ragnarok.2013.BDRip.1080p.mkv
Формат : Matroska
Версия формата : Version 4 / Version 2
Размер файла : 8,08 Гбайт
Продолжительность : 1 ч. 41 м.
Общий поток : 11,4 Мбит/сек
Название фильма : Gaten Ragnarok (2013)
Дата кодирования : UTC 2014-02-26 14:14:05
Программа кодирования : mkvmerge v6.3.0 ('You can't stop me!') built on Jun 28 2013 20:09:41
Библиотека кодирования : libebml v1.3.0 + libmatroska v1.4.0
Attachment : Yes
Видео
Идентификатор : 1
Формат : AVC
Формат/Информация : Advanced Video Codec
Профиль формата : [email protected]
Параметр CABAC формата : Да
Параметр ReFrames формата : 5 кадров
Идентификатор кодека : V_MPEG4/ISO/AVC
Продолжительность : 1 ч. 41 м.
Битрейт : 9512 Кбит/сек
Ширина : 1920 пикселей
Высота : 800 пикселей
Соотношение сторон : 2,40:1
Режим частоты кадров : Постоянный
Частота кадров : 24,000 кадра/сек
Цветовое пространство : YUV
Субдискретизация насыщенности : 4:2:0
Битовая глубина : 8 бит
Тип развёртки : Прогрессивная
Бит/(Пиксели*Кадры) : 0.258
Размер потока : 6,72 Гбайт (83%)
Заголовок : Тайна.Рагнарока-Gaten.Ragnarok.(2013).BDRip.[1080p]
Язык : Norwegian
Default : Да
Forced : Нет
Аудио #1
Идентификатор : 2
Формат : MPEG Audio
Версия формата : Version 1
Профиль формата : Layer 3
Идентификатор кодека : A_MPEG/L3
Идентификатор кодека/Подсказка : MP3
Продолжительность : 1 ч. 41 м.
Вид битрейта : Постоянный
Битрейт : 192 Кбит/сек
Каналы : 2 канала
Частота : 44,1 КГц
Метод сжатия : С потерями
Размер потока : 139 Мбайт (2%)
Язык : Russian
Default : Нет
Forced : Нет
Аудио #2
Идентификатор : 3
Формат : DTS
Формат/Информация : Digital Theater Systems
Режим : 16
Параметр Endianness формата : Big
Идентификатор кодека : A_DTS
Продолжительность : 1 ч. 41 м.
Вид битрейта : Постоянный
Битрейт : 1509 Кбит/сек
Каналы : 6 каналов
Расположение каналов : Front: L C R, Side: L R, LFE
Частота : 48,0 КГц
Битовая глубина : 24 бит
Метод сжатия : С потерями
Размер потока : 1,07 Гбайт (13%)
Заголовок : DTS 5.1 / 1536 kbps / Original
Язык : Norwegian
Default : Да
Forced : Нет
Текст #1
Идентификатор : 4
Формат : UTF-8
Идентификатор кодека : S_TEXT/UTF8
Идентификатор кодека/Информация : UTF-8 Plain Text
Заголовок : Mannenr
Язык : Russian
Default : Нет
Forced : Нет
Текст #2
Идентификатор : 5
Формат : PGS
Режим смешивания : zlib
Идентификатор кодека : S_HDMV/PGS
Идентификатор кодека/Информация : The same subtitle format used on BDs/HD-DVDs
Язык : Norwegian
Default : Нет
Forced : Нет
Меню
00:00:00.000 : en:00:00:00.000
00:07:07.667 : en:00:07:07.667
00:16:23.167 : en:00:16:23.167
00:24:55.000 : en:00:24:55.000
00:33:32.542 : en:00:33:32.542
00:40:07.417 : en:00:40:07.417
00:52:19.250 : en:00:52:19.250
00:58:54.667 : en:00:58:54.667
01:07:07.000 : en:01:07:07.000
01:15:54.292 : en:01:15:54.292
01:26:06.375 : en:01:26:06.375
01:36:25.458 : en:01:36:25.458

Скриншоты:


Время раздачи: с 10:00 до 20:00 (GMT+2) - до 10 скачавших

[Цитировать]



Показать сообщения:    

Текущее время: 04-Дек 13:15

Часовой пояс: UTC + 3


Вы не можете начинать темы
Вы не можете отвечать на сообщения
Вы не можете редактировать свои сообщения
Вы не можете удалять свои сообщения
Вы не можете голосовать в опросах
Вы не можете прикреплять файлы к сообщениям
Вы не можете скачивать файлы

!ВНИМАНИЕ!
Сайт не предоставляет электронные версии произведений, а занимается лишь коллекционированием и каталогизацией ссылок, присылаемых и публикуемых на форуме нашими читателями. Если вы являетесь правообладателем какого-либо представленного материала и не желаете, чтобы ссылка на него находилась в нашем каталоге, свяжитесь с нами, и мы незамедлительно удалим ее. Файлы для обмена на трекере предоставлены пользователями сайта, и администрация не несет ответственности за их содержание. Просьба не заливать файлы, защищенные авторскими правами, а также файлы нелегального содержания!