[ Сегодня идет свободное скачивание без начисления Download ]


Статистика раздачи
Нет
 
   
 
Top  
 
 
-Воровка книг / The Book Thief (2013) HDRip«Отвага без лишних слов»- Год выпуска: 2013
Производство: США, Германия, Fox 2000 Pictures, Studio Babelsberg
Жанр: Драма, Военный
Перевод: Дублированный (Лицензия)
Субтитры: Вшитые неотключаемые
Язык субтитров: Русский (Немецко-язычные сцены)
Дата мировой премьеры: 3 октября 2013
Дата российской премьеры: 16 января 2014, «Двадцатый Век Фокс СНГ»
Дата украинской премьеры: 16 октября 2014, «Ukrainian Film Distribution»
Дата выхода DVD / Blu-Ray релиза: 29 мая 2014, «Двадцатый Век Фокс СНГ»
Режиссер: Брайан Персивал
Продюсер: Кен Бланкато, Редмонд Моррис, Карен Розенфельт
Актеры: Софи Нелисс, Джеффри Раш, Эмили Уотсон, Роджер Аллам, Хайке Макач, Джулиан Леманн, Готард Ланге, Райнер Рейнерс, Керстен Блок, Нико Лирш
Описание фильма:
Германия, начало 1939 года, канун Второй мировой войны. Смерть готовится начать свою жатву. Девятилетняя Лизель переезжает в Мюнхен к своим приемным родителям и с их помощью учится читать. С каждым днем чтение становится ее жизненной потребностью, и Лизель начинает воровать книги — единственную отраду ее жизни. Все, что она узнает из них, помогает ей понять события, происходящие вокруг нее — гонение на евреев, антифашистское движение, унижения и голод. Все это, в конце концов, сложится в ее собственную историю, историю ее жизни.
Рейтинг MPAA: PG-13
Возраст: 12+

Продолжительность: 02:10:59
Качество видео: HDRip
Видеокодек: Xvid
Битрейт видео: ~ 1745 Kbit/s
Размер кадра: 720 x 304
Aудио: AC-3, 48.0 KHz, 6 ch, 448 Kbps, CBR (Русский, Дубляж)

Знаете ли Вы, что...

• Фильм снят по мотивам романа Маркуса Зуcака «Книжный Вор» (The Book Thief, 2006).
• Роберт Шиэн проходил прослушивание на роль Макса.

MediaInfo:

Формат                                   : Matroska
Версия формата                           : Version 4 / Version 2
Размер файла                             : 2,05 Гбайт
Продолжительность                        : 2 ч. 10 м.
Общий поток                              : 2238 Кбит/сек
Дата кодирования                         : UTC 2014-02-27 23:45:37
Программа кодирования                    : mkvmerge v6.6.0 ('The Edge Of The In Between') built on Dec  1 2013 17:55:00
Библиотека кодирования                   : libebml v1.3.0 + libmatroska v1.4.1
Видео
Идентификатор                            : 1
Формат                                   : MPEG-4 Visual
Профиль формата                          : Advanced Simple@L5
Параметр BVOP формата                    : Да
Параметр QPel формата                    : Нет
Параметр GMC формата                     : Без точки перехода
Параметр матрицы формата                 : Выборочная
Идентификатор кодека                     : V_MS/VFW/FOURCC / XVID
Идентификатор кодека/Подсказка           : XviD
Продолжительность                        : 2 ч. 10 м.
Битрейт                                  : 1745 Кбит/сек
Ширина                                   : 720 пикселей
Высота                                   : 304 пикселя
Соотношение сторон                       : 2,35:1
Режим частоты кадров                     : Постоянный
Частота кадров                           : 23,976 кадра/сек
Цветовое пространство                    : YUV
Субдискретизация насыщенности            : 4:2:0
Битовая глубина                          : 8 бит
Тип развёртки                            : Прогрессивная
Метод сжатия                             : С потерями
Бит/(Пиксели*Кадры)                      : 0.333
Размер потока                            : 1,60 Гбайт (78%)
Библиотека кодирования                   : XviD 1.2.1 (UTC 2008-12-04)
Default                                  : Да
Forced                                   : Нет
Аудио
Идентификатор                            : 2
Формат                                   : AC-3
Формат/Информация                        : Audio Coding 3
Расширение режима                        : CM (complete main)
Параметр Endianness формата              : Big
Идентификатор кодека                     : A_AC3
Продолжительность                        : 2 ч. 10 м.
Вид битрейта                             : Постоянный
Битрейт                                  : 448 Кбит/сек
Каналы                                   : 6 каналов
Расположение каналов                     : Front: L C R, Side: L R, LFE
Частота                                  : 48,0 КГц
Битовая глубина                          : 16 бит
Метод сжатия                             : С потерями
Размер потока                            : 420 Мбайт (20%)
Default                                  : Да
Forced                                   : Нет

Скриншоты:


Время раздачи: 24/7 (до 10 скачавших)

[Цитировать]

Топик был перенесен из форума Новинки кинопроката в форум Драма
Henkok



Показать сообщения:    

Текущее время: 08-Дек 23:06

Часовой пояс: UTC + 3


Вы не можете начинать темы
Вы не можете отвечать на сообщения
Вы не можете редактировать свои сообщения
Вы не можете удалять свои сообщения
Вы не можете голосовать в опросах
Вы не можете прикреплять файлы к сообщениям
Вы не можете скачивать файлы

!ВНИМАНИЕ!
Сайт не предоставляет электронные версии произведений, а занимается лишь коллекционированием и каталогизацией ссылок, присылаемых и публикуемых на форуме нашими читателями. Если вы являетесь правообладателем какого-либо представленного материала и не желаете, чтобы ссылка на него находилась в нашем каталоге, свяжитесь с нами, и мы незамедлительно удалим ее. Файлы для обмена на трекере предоставлены пользователями сайта, и администрация не несет ответственности за их содержание. Просьба не заливать файлы, защищенные авторскими правами, а также файлы нелегального содержания!