[ Сегодня идет свободное скачивание без начисления Download ]


Статистика раздачи
Нет
 
   
 
Top  
 
 
-Воровка книг / The Book Thief (2013) HDRip- Год выпуска: 2013
Производство: США, Германия, Fox 2000 Pictures, Studio Babelsberg
Жанр: Драма, Военный
Перевод: Дублированный | Лицензия |
Субтитры: Вшитые не отключаемые
Язык субтитров: Русский (немецко-язычные сцены)
Дата мировой премьеры: 3 октября 2013
Дата российской премьеры: 16 января 2014, «Двадцатый Век Фокс СНГ»
Дата выхода DVD релиза: 29 мая 2014, «Двадцатый Век Фокс СНГ»
Режиссер: Брайан Персивал
Продюсер: Кен Бланкато, Карен Розенфельт, Кристоф Фиссер
Актеры: Софи Нелисс, Джеффри Раш, Эмили Уотсон, Роджер Аллам, Хайке Макач, Джулиан Леманн, Готард Ланге, Райнер Рейнерс, Керстен Блок, Нико Лирш
Описание фильма:
Германия, начало 1939 года, канун Второй мировой войны. Смерть готовится начать свою жатву. Девятилетняя Лизель переезжает в Мюнхен к своим приемным родителям и с их помощью учится читать. С каждым днем чтение становится ее жизненной потребностью, и Лизель начинает воровать книги — единственную отраду ее жизни. Все, что она узнает из них, помогает ей понять события, происходящие вокруг нее — гонение на евреев, антифашистское движение, унижения и голод. Все это, в конце концов, сложится в ее собственную историю, историю ее жизни.

Продолжительность: 02:10:59
Качество видео: HDRip
Видеокодек: XviD
Битрейт видео: 1135 kb/s
Размер кадра: 720x304
Аудиокодек: AC3 5.1
Битрейт аудио: 448 kb/s

Награды

Оскар, 2014 год
Номинации (1):
  • Лучший саундтрек
Золотой глобус, 2014 год
Номинации (1):
  • Лучший саундтрек
Британская академия, 2014 год
Номинации (1):
  • Премия имени Энтони Эскуита за достижения в создании музыки к фильму

MI

Общее
Полное имя                               : D:\Мужа\Vorovka.Knig.2013.HDRip.NNM-CLUB.avi
Формат                                   : AVI
Формат/Информация                        : Audio Video Interleave
Размер файла                             : 1,46 Гбайт
Продолжительность                        : 2 ч. 10 м.
Общий поток                              : 1592 Кбит/сек
Программа кодирования                    : VirtualDubMod 1.5.10.2 (build 2540/release)
Библиотека кодирования                   : VirtualDubMod build 2540/release
Видео
Идентификатор                            : 0
Формат                                   : MPEG-4 Visual
Профиль формата                          : Advanced Simple@L5
Параметр BVOP формата                    : 2
Параметр QPel формата                    : Нет
Параметр GMC формата                     : Без точки перехода
Параметр матрицы формата                 : Выборочная
Идентификатор кодека                     : XVID
Идентификатор кодека/Подсказка           : XviD
Продолжительность                        : 2 ч. 10 м.
Битрейт                                  : 1135 Кбит/сек
Ширина                                   : 720 пикселей
Высота                                   : 304 пикселя
Соотношение сторон                       : 2,35:1
Частота кадров                           : 23,976 кадра/сек
Цветовое пространство                    : YUV
Субдискретизация насыщенности            : 4:2:0
Битовая глубина                          : 8 бит
Тип развёртки                            : Прогрессивная
Метод сжатия                             : С потерями
Бит/(Пиксели*Кадры)                      : 0.216
Размер потока                            : 1,04 Гбайт (71%)
Библиотека кодирования                   : XviD 1.2.1 (UTC 2008-12-04)
Аудио
Идентификатор                            : 1
Формат                                   : AC-3
Формат/Информация                        : Audio Coding 3
Расширение режима                        : CM (complete main)
Параметр Endianness формата              : Big
Идентификатор кодека                     : 2000
Продолжительность                        : 2 ч. 10 м.
Вид битрейта                             : Постоянный
Битрейт                                  : 448 Кбит/сек
Каналы                                   : 6 каналов
Расположение каналов                     : Front: L C R, Side: L R, LFE
Частота                                  : 48,0 КГц
Битовая глубина                          : 16 бит
Метод сжатия                             : С потерями
Размер потока                            : 420 Мбайт (28%)
Выравнивание                             : Разделение по промежуткам
Продолжительность промежутка             : 42  мс. (1,00 видеокадр)
Время предзагрузки промежутка            : 500  мс.

Скриншоты:

Время раздачи: 24/7,
до 5 скачавших.

[Цитировать]

Топик был перенесен из форума Новинки кинопроката в форум Драма
Henkok



Показать сообщения:    

Текущее время: 10-Дек 09:57

Часовой пояс: UTC + 3


Вы не можете начинать темы
Вы не можете отвечать на сообщения
Вы не можете редактировать свои сообщения
Вы не можете удалять свои сообщения
Вы не можете голосовать в опросах
Вы не можете прикреплять файлы к сообщениям
Вы не можете скачивать файлы

!ВНИМАНИЕ!
Сайт не предоставляет электронные версии произведений, а занимается лишь коллекционированием и каталогизацией ссылок, присылаемых и публикуемых на форуме нашими читателями. Если вы являетесь правообладателем какого-либо представленного материала и не желаете, чтобы ссылка на него находилась в нашем каталоге, свяжитесь с нами, и мы незамедлительно удалим ее. Файлы для обмена на трекере предоставлены пользователями сайта, и администрация не несет ответственности за их содержание. Просьба не заливать файлы, защищенные авторскими правами, а также файлы нелегального содержания!