[ Сегодня идет свободное скачивание без начисления Download ]


Статистика раздачи
Нет
 
   
 
Top  
 
 
-Из пекла / Out of the Furnace (2013) HDRip- Год выпуска: 2013
Производство: США, Великобритания
Жанр: Драма, Триллер, Криминал
Перевод: Двуголосый закадровый, любительский
Озвучка / Автор перевода: Дмитрий Чепусов & Анастасия Флигина (Jimmy J.)
Присутствует ненормативная лексика!
Дата мировой премьеры:
9 ноября 2013
Режиссер: Скотт Купер
Продюсер: Риза Азиз, Джейсон Бекман, Робби Бреннер
Актеры: Кристиан Бэйл, Вуди Харрельсон, Кейси Аффлек, Форест Уитакер, Уиллем Дефо, Зои Салдана, Сэм Шепард, Дендри Тейлор, Карл Киарфалио, Нэнси Моссер
Описание фильма:
Когда Родни Бэйз таинственно исчезает, а правоохранительные органы при этом действуют недостаточно быстро, его старший брат Рассел берет дело в свои руки, чтобы добиться справедливости.

Продолжительность: 01:56:07
Качество видео: HDRip
Видеокодек: Xvid
Битрейт видео: ~762 kb/s
Размер кадра: 688x288
Аудиокодек: MP3
Битрейт аудио: 128 kb/s
Сэмпл: Скачать

MediaInfo

Общее
Полное имя : D:\Out of the Furnace 2013_HDRip.avi
Формат : AVI
Формат/Информация : Audio Video Interleave
Размер файла : 747 Мбайт
Продолжительность : 1 ч. 56 м.
Общий поток : 899 Кбит/сек
Программа кодирования : VirtualDubMod 1.5.10.3 | www.virtualdub-fr.org || (build 2550/release)
Библиотека кодирования : VirtualDubMod build 2550/release
Видео
Идентификатор : 0
Формат : MPEG-4 Visual
Профиль формата : Advanced [email protected]
Параметр BVOP формата : 1
Параметр QPel формата : Нет
Параметр GMC формата : Без точки перехода
Параметр матрицы формата : Выборочная
Идентификатор кодека : XVID
Идентификатор кодека/Подсказка : XviD
Продолжительность : 1 ч. 56 м.
Битрейт : 762 Кбит/сек
Ширина : 688 пикселей
Высота : 288 пикселей
Соотношение сторон : 2,40:1
Частота кадров : 23,976 кадра/сек
Цветовое пространство : YUV
Субдискретизация насыщенности : 4:2:0
Битовая глубина : 8 бит
Тип развёртки : Прогрессивная
Метод сжатия : С потерями
Бит/(Пиксели*Кадры) : 0.160
Размер потока : 633 Мбайт (85%)
Библиотека кодирования : XviD 73
Аудио
Идентификатор : 1
Формат : MPEG Audio
Версия формата : Version 1
Профиль формата : Layer 3
Идентификатор кодека : 55
Идентификатор кодека/Подсказка : MP3
Продолжительность : 1 ч. 56 м.
Вид битрейта : Постоянный
Битрейт : 128 Кбит/сек
Каналы : 2 канала
Частота : 48,0 КГц
Метод сжатия : С потерями
Размер потока : 106 Мбайт (14%)
Выравнивание : Соединение по промежуткам
Продолжительность промежутка : 42 мс. (1,00 видеокадр)
Время предзагрузки промежутка : 504 мс.
Библиотека кодирования : LAME3.99r
Настройки программы : -m s -V 4 -q 2 -lowpass 17 -b 128

Скриншоты:

Время раздачи: с 20:00 до 02:00

[Цитировать]



Показать сообщения:    

Текущее время: 06-Дек 08:51

Часовой пояс: UTC + 3


Вы не можете начинать темы
Вы не можете отвечать на сообщения
Вы не можете редактировать свои сообщения
Вы не можете удалять свои сообщения
Вы не можете голосовать в опросах
Вы не можете прикреплять файлы к сообщениям
Вы не можете скачивать файлы

!ВНИМАНИЕ!
Сайт не предоставляет электронные версии произведений, а занимается лишь коллекционированием и каталогизацией ссылок, присылаемых и публикуемых на форуме нашими читателями. Если вы являетесь правообладателем какого-либо представленного материала и не желаете, чтобы ссылка на него находилась в нашем каталоге, свяжитесь с нами, и мы незамедлительно удалим ее. Файлы для обмена на трекере предоставлены пользователями сайта, и администрация не несет ответственности за их содержание. Просьба не заливать файлы, защищенные авторскими правами, а также файлы нелегального содержания!