[ Сегодня идет свободное скачивание без начисления Download ]


Статистика раздачи
Нет
 
   
 
Top  
 
 
-Я, Франкенштейн / I, Frankenstein
«In the battle between good and evil, an immortal holds the key»
«In the battle between good and evil, an immortal holds the key»
- Год выпуска: 2013
Страна: США, Австралия
Производство: Hopscotch Features, Lakeshore Entertainment
Жанр: фэнтези, боевик, приключения
Режиссёр: Стюарт Битти
В ролях: Аарон Экхарт, Ивонн Страховски, Миранда Отто, Билл Найи, Джай Кортни, Сократис Отто, Аден Янг, Кэйтлин Стэйси, Махеш Джаду, Стив Музакис
Перевод: Дублированный
Субтитры: нет
Описание: Он — монстр. Он — двухсотлетний плод безумной фантазии своего создателя. Он — легенда. Мир, в котором он живет, населен древними горгульями и бессмертными демонами, которые сражаются за обладание человечеством. Величественные соборы скрывают огромные арсеналы, за дверьми научных лабораторий проводятся эксперименты по воскрешению мертвых. Война двух кланов могущественных существ достигает своего пика. И только он, Адам, монстр Франкенштейна, в силах ее остановить. Качество: BDRip 1080p
Продолжительность: 01:33:10
Формат: MKV
Формат 3D: Half OverUnder / Вертикальная анаморфная стереопара
Видео кодек: AVC
Аудио кодек: AC3, DTS
Видео: AVC / 1920х1080p / 23,976 fps / 9 849 Kbps, 0.198 bit/pixel
Аудио#1: Русский / DTS / 48 KHz / 6 ch / 1 509 Kbps
Аудио#2: Русский / AC3 / 48 KHz / 6 ch / 640 Kbps

Media Info

Format : Matroska
Format version : Version 2
File size : 7.96 GiB
Duration : 1h 33mn
Overall bit rate : 12.2 Mbps
Movie name : IFRANKENSTEIN_3D_BLUEBIRD.Title2
Encoded date : UTC 2014-03-01 07:45:44
Writing application : mkvmerge v6.7.0 ('Back to the Ground') 64bit built on Jan 8 2014 15:10:52
Writing library : libebml v1.3.0 + libmatroska v1.4.1
Video
ID : 1
Format : AVC
Format/Info : Advanced Video Codec
Format profile : High@L4.1
Format settings, CABAC : Yes
Format settings, ReFrames : 2 frames
Format settings, GOP : M=3, N=24
Codec ID : V_MPEG4/ISO/AVC
Duration : 1h 33mn
Bit rate : 9 849 Kbps
Width : 1 920 pixels
Height : 1 080 pixels
Display aspect ratio : 16:9
Frame rate mode : Constant
Frame rate : 23.976 fps
Color space : YUV
Chroma subsampling : 4:2:0
Bit depth : 8 bits
Scan type : Progressive
Bits/(Pixel*Frame) : 0.198
Stream size : 6.40 GiB (80%)
Writing library : x264 core
Default : Yes
Forced : No
Color primaries : BT.709
Transfer characteristics : BT.709
Matrix coefficients : BT.709
Audio #1
ID : 2
Format : DTS
Format/Info : Digital Theater Systems
Mode : 16
Format settings, Endianness : Big
Codec ID : A_DTS
Duration : 1h 33mn
Bit rate mode : Constant
Bit rate : 1 509 Kbps
Channel count : 6 channels
Channel positions : Front: L C R, Side: L R, LFE
Sampling rate : 48.0 KHz
Bit depth : 16 bits
Compression mode : Lossy
Stream size : 1 004 MiB (12%)
Language : Russian
Default : Yes
Forced : No
Audio #2
ID : 3
Format : AC-3
Format/Info : Audio Coding 3
Mode extension : CM (complete main)
Format settings, Endianness : Big
Codec ID : A_AC3
Duration : 1h 33mn
Bit rate mode : Constant
Bit rate : 640 Kbps
Channel count : 6 channels
Channel positions : Front: L C R, Side: L R, LFE
Sampling rate : 48.0 KHz
Bit depth : 16 bits
Compression mode : Lossy
Stream size : 426 MiB (5%)
Language : Russian
Default : No
Forced : No
Menu #1
00:00:00.000 : en:00:00:00.000
00:12:24.077 : en:00:12:24.077
00:22:07.785 : en:00:22:07.785
00:33:21.958 : en:00:33:21.958
00:44:51.772 : en:00:44:51.772
00:56:45.527 : en:00:56:45.527
01:07:12.487 : en:01:07:12.487
01:21:14.661 : en:01:21:14.661
Menu #2
00:00:00.000 : en:00:00:00.000
00:12:24.077 : en:00:12:24.077
00:22:07.785 : en:00:22:07.785
00:33:21.958 : en:00:33:21.958
00:44:51.772 : en:00:44:51.772
00:56:45.527 : en:00:56:45.527
01:07:12.487 : en:01:07:12.487
01:21:14.661 : en:01:21:14.661

[Цитировать]



Показать сообщения:    

Текущее время: 09-Дек 14:40

Часовой пояс: UTC + 3


Вы не можете начинать темы
Вы не можете отвечать на сообщения
Вы не можете редактировать свои сообщения
Вы не можете удалять свои сообщения
Вы не можете голосовать в опросах
Вы не можете прикреплять файлы к сообщениям
Вы не можете скачивать файлы

!ВНИМАНИЕ!
Сайт не предоставляет электронные версии произведений, а занимается лишь коллекционированием и каталогизацией ссылок, присылаемых и публикуемых на форуме нашими читателями. Если вы являетесь правообладателем какого-либо представленного материала и не желаете, чтобы ссылка на него находилась в нашем каталоге, свяжитесь с нами, и мы незамедлительно удалим ее. Файлы для обмена на трекере предоставлены пользователями сайта, и администрация не несет ответственности за их содержание. Просьба не заливать файлы, защищенные авторскими правами, а также файлы нелегального содержания!