[ Сегодня идет свободное скачивание без начисления Download ]


Статистика раздачи
Нет
 
   
 
Top  
 
 
-Детский час / The Children's Hour «One of Broadway's greatest hits...becomes powerful, adult screen drama!»- Год выпуска: 1961
Производство: США
Жанр: Драма
Описание фильма:
История двух женщин, Карен и Марты, открывших в провинциальном городке частную школу и обвиненных одной из учениц в лесбийских отношениях. Учительницы долгое время пытались призвать обвинителей к ответу, но в итоге потеряли работу в школе и все сбережения.
Режиссер: Уильям Уайлер
Актеры: Одри Хепберн, Ширли МакЛейн, Джеймс Гарнер, Мириам Хопкинс, Фэй Бейнтер, Карен Балкин, Вероника Картрайт, Мими Гибсон, Дэбби Молдоу, Дайан Маунтфорд...
Продолжительность: 01:43:18
Качество видео: HDTVRip
Перевод: Многолосый закадровый
Автор перевода: 5-й канал СПб

Видеокодек: MPEG-4 AVC/H.264
Битрейт видео: ~3222 Кбит/сек
Размер кадра: 1280 x 720
Аудиокодек: AC-3 2.0
Битрейт аудио: 192 Кбит/сек

MediaInfo

Общее
Уникальный идентификатор                 : 191218436826683388755821438583590511266 (0x8FDB54D2B88064156F7F72B0552262A2)
Формат                                   : Matroska
Версия формата                           : Version 2
Размер файла                             : 2,51 Гбайт
Продолжительность                        : 1 ч. 43 м.
Режим общего битрейта                    : Переменный
Общий поток                              : 3483 Кбит/сек
Дата кодирования                         : UTC 2012-07-30 14:57:57
Программа кодирования                    : Lavf54.63.104
Библиотека кодирования                   : Lavf54.63.104
Видео
Идентификатор                            : 1
Формат                                   : AVC
Формат/Информация                        : Advanced Video Codec
Профиль формата                          : [url=mailto:Main@L4.0]Main@L4.0[/url]
Параметр CABAC формата                   : Да
Параметр ReFrames формата                : 1 кадр
Параметр GOP формата                     : M=1, N=15
Идентификатор кодека                     : V_MPEG4/ISO/AVC
Продолжительность                        : 1 ч. 43 м.
Вид битрейта                             : Переменный
Битрейт                                  : 3222 Кбит/сек
Максимальный битрейт                     : 9847 Кбит/сек
Ширина                                   : 1280 пикселей
Высота                                   : 720 пикселей
Соотношение сторон                       : 16:9
Режим частоты кадров                     : Постоянный
Частота кадров                           : 29,970 кадров/сек
Цветовое пространство                    : YUV
Субдискретизация насыщенности            : 4:2:0
Битовая глубина                          : 8 бит
Тип развёртки                            : Прогрессивная
Бит/(Пиксели*Кадры)                      : 0.117
Размер потока                            : 2,33 Гбайт (92%)
Default                                  : Да
Forced                                   : Нет
Аудио
Идентификатор                            : 2
Формат                                   : AC-3
Формат/Информация                        : Audio Coding 3
Расширение режима                        : CM (complete main)
Параметр Endianness формата              : Big
Идентификатор кодека                     : A_AC3
Продолжительность                        : 1 ч. 43 м.
Вид битрейта                             : Постоянный
Битрейт                                  : 192 Кбит/сек
Каналы                                   : 2 канала
Расположение каналов                     : Front: L R
Частота                                  : 48,0 КГц
Битовая глубина                          : 16 бит
Метод сжатия                             : С потерями
Размер потока                            : 142 Мбайт (6%)
Default                                  : Да
Forced                                   : Нет
Скриншоты:
Время раздачи: с 10:00 до 22:00 по возможности

[Цитировать]



Показать сообщения:    

Текущее время: 09-Дек 12:41

Часовой пояс: UTC + 3


Вы не можете начинать темы
Вы не можете отвечать на сообщения
Вы не можете редактировать свои сообщения
Вы не можете удалять свои сообщения
Вы не можете голосовать в опросах
Вы не можете прикреплять файлы к сообщениям
Вы не можете скачивать файлы

!ВНИМАНИЕ!
Сайт не предоставляет электронные версии произведений, а занимается лишь коллекционированием и каталогизацией ссылок, присылаемых и публикуемых на форуме нашими читателями. Если вы являетесь правообладателем какого-либо представленного материала и не желаете, чтобы ссылка на него находилась в нашем каталоге, свяжитесь с нами, и мы незамедлительно удалим ее. Файлы для обмена на трекере предоставлены пользователями сайта, и администрация не несет ответственности за их содержание. Просьба не заливать файлы, защищенные авторскими правами, а также файлы нелегального содержания!