[ Сегодня идет свободное скачивание без начисления Download ]


Статистика раздачи
Нет
 
   
 
Top  
 
 
-Шов / Stitch Год выпуска: 2014
Производство: США
Жанр: Триллер
Язык: Русский, Английский
Перевод: Двухголосый закадровый (профессиональный НТВ+)
Субтитры: Вшитые отключаемые
Язык субтитров: Английский
Дата мировой премьеры: 14 февраля 2014
Режиссер: Аджай
Продюсер: Брюс Диксон, Трэвис Хафф, Аджай
Актеры: Эдвард Ферлонг, Ширли Бренер, Шона Уолрод, Лоуренс Мэйсон, Дайан Салинджер, Дуглас Тейт, Тиффани Мартин
Возраст: 18+
Описание фильма:
История о скорбящих родителях Марсдене и Серафине, которые пытаются пережить смерть своей маленькой дочери. На пике отчаяния они обращаются к своим друзьям за советом. Их друзья, действуя из лучших побуждений, вывозят их далеко в пустыню, чтобы там они, пройдя некий ритуал, смогли избавиться от своих переживаний. Но все пошло наперекосяк…

Продолжительность: 01:34:41
Качество видео: BDRip [720p]
Видеокодек: MPEG-4 AVC/H.264
Битрейт видео: ~ 4317 Kbit/s
Размер кадра: 1280х720, 23.976 fps
Аудио #1: AC-3, 48.0 KHz, 2 ch, 192 Kbps, CBR [Русский, Двухголосый закадровый]
Аудио #2: AC-3, 48.0 KHz, 6 ch, 640 Kbps, CBR [Английский]
Дополнительно: Сохранены оригинальные чаптеры как на Blu-ray

MediaInfo:

Формат                                   : Matroska
Версия формата                           : Version 4 / Version 2
Размер файла                             : 3,41 Гбайт
Продолжительность                        : 1 ч. 34 м.
Общий поток                              : 5151 Кбит/сек
Название фильма                          : Stitch
Дата кодирования                         : UTC 2014-02-28 21:14:54
Программа кодирования                    : mkvmerge v6.6.0 ('The Edge Of The In Between') built on Dec  1 2013 17:55:00
Библиотека кодирования                   : libebml v1.3.0 + libmatroska v1.4.1
Видео
Идентификатор                            : 1
Формат                                   : AVC
Формат/Информация                        : Advanced Video Codec
Профиль формата                          : [url=mailto:[email protected]][email protected][/url]
Параметр CABAC формата                   : Да
Параметр ReFrames формата                : 5 кадров
Идентификатор кодека                     : V_MPEG4/ISO/AVC
Продолжительность                        : 1 ч. 34 м.
Битрейт                                  : 4317 Кбит/сек
Ширина                                   : 1280 пикселей
Высота                                   : 720 пикселей
Соотношение сторон                       : 16:9
Режим частоты кадров                     : Постоянный
Частота кадров                           : 23,976 кадра/сек
Цветовое пространство                    : YUV
Субдискретизация насыщенности            : 4:2:0
Битовая глубина                          : 8 бит
Тип развёртки                            : Прогрессивная
Бит/(Пиксели*Кадры)                      : 0.195
Размер потока                            : 2,79 Гбайт (82%)
Заголовок                                : Stitch
Библиотека кодирования                   : x264 core 140 r2377 1ca7bb9
Настройки программы                      : cabac=1 / ref=5 / deblock=1:-2:-2 / analyse=0x3:0x113 / me=umh / subme=9 / psy=1 / psy_rd=1.00:0.00 / mixed_ref=1 / me_range=16 / chroma_me=1 / trellis=2 / 8x8dct=1 / cqm=0 / deadzone=21,11 / fast_pskip=1 / chroma_qp_offset=-2 / threads=12 / lookahead_threads=1 / sliced_threads=0 / nr=0 / decimate=1 / interlaced=0 / bluray_compat=0 / constrained_intra=0 / bframes=3 / b_pyramid=2 / b_adapt=2 / b_bias=0 / direct=3 / weightb=1 / open_gop=0 / weightp=2 / keyint=240 / keyint_min=23 / scenecut=40 / intra_refresh=0 / rc_lookahead=50 / rc=2pass / mbtree=1 / bitrate=4317 / ratetol=1.0 / qcomp=0.60 / qpmin=0 / qpmax=69 / qpstep=4 / cplxblur=20.0 / qblur=0.5 / vbv_maxrate=62500 / vbv_bufsize=78125 / nal_hrd=none / filler=0 / ip_ratio=1.40 / aq=1:1.00
Язык                                     : English
Default                                  : Да
Forced                                   : Нет
Аудио #1
Идентификатор                            : 2
Формат                                   : AC-3
Формат/Информация                        : Audio Coding 3
Расширение режима                        : CM (complete main)
Параметр Endianness формата              : Big
Идентификатор кодека                     : A_AC3
Продолжительность                        : 1 ч. 34 м.
Вид битрейта                             : Постоянный
Битрейт                                  : 192 Кбит/сек
Каналы                                   : 2 канала
Расположение каналов                     : Front: L R
Частота                                  : 48,0 КГц
Битовая глубина                          : 16 бит
Метод сжатия                             : С потерями
Размер потока                            : 130 Мбайт (4%)
Заголовок                                : Двухголосый закадровый (Нтв+)
Язык                                     : Russian
Default                                  : Да
Forced                                   : Да
Аудио #2
Идентификатор                            : 3
Формат                                   : AC-3
Формат/Информация                        : Audio Coding 3
Расширение режима                        : CM (complete main)
Параметр Endianness формата              : Big
Идентификатор кодека                     : A_AC3
Продолжительность                        : 1 ч. 34 м.
Вид битрейта                             : Постоянный
Битрейт                                  : 640 Кбит/сек
Каналы                                   : 6 каналов
Расположение каналов                     : Front: L C R, Side: L R, LFE
Частота                                  : 48,0 КГц
Битовая глубина                          : 16 бит
Метод сжатия                             : С потерями
Размер потока                            : 433 Мбайт (12%)
Язык                                     : English
Default                                  : Нет
Forced                                   : Нет
Текст
Идентификатор                            : 4
Формат                                   : UTF-8
Идентификатор кодека                     : S_TEXT/UTF8
Идентификатор кодека/Информация          : UTF-8 Plain Text
Язык                                     : English
Default                                  : Нет
Forced                                   : Нет
Меню
00:00:00.000                             : en:00:00:00.000
00:03:04.184                             : en:00:03:04.184
00:07:12.766                             : en:00:07:12.766
00:08:24.504                             : en:00:08:24.504
00:11:23.808                             : en:00:11:23.808
00:13:20.800                             : en:00:13:20.800
00:15:24.006                             : en:00:15:24.006
00:15:52.952                             : en:00:15:52.952
00:17:16.035                             : en:00:17:16.035
00:20:44.243                             : en:00:20:44.243
00:23:53.766                             : en:00:23:53.766
00:25:17.766                             : en:00:25:17.766
00:25:40.164                             : en:00:25:40.164
00:28:21.700                             : en:00:28:21.700
00:30:29.828                             : en:00:30:29.828
00:35:38.636                             : en:00:35:38.636
00:37:01.052                             : en:00:37:01.052
00:39:59.772                             : en:00:39:59.772
00:41:32.490                             : en:00:41:32.490
00:42:16.701                             : en:00:42:16.701
00:46:22.279                             : en:00:46:22.279
00:49:57.995                             : en:00:49:57.995
00:53:14.024                             : en:00:53:14.024
00:53:54.273                             : en:00:53:54.273
00:55:28.325                             : en:00:55:28.325
01:01:39.696                             : en:01:01:39.696
01:04:17.604                             : en:01:04:17.604
01:09:38.174                             : en:01:09:38.174
01:12:52.368                             : en:01:12:52.368
01:15:19.724                             : en:01:15:19.724
01:16:29.794                             : en:01:16:29.794
01:19:38.774                             : en:01:19:38.774
01:20:31.869                             : en:01:20:31.869
01:22:15.097                             : en:01:22:15.097
01:26:16.004                             : en:01:26:16.004
01:29:25.777                             : en:01:29:25.777
01:32:34.174                             : en:01:32:34.174
Скриншоты:

[Цитировать]



Показать сообщения:    

Текущее время: 04-Дек 15:17

Часовой пояс: UTC + 3


Вы не можете начинать темы
Вы не можете отвечать на сообщения
Вы не можете редактировать свои сообщения
Вы не можете удалять свои сообщения
Вы не можете голосовать в опросах
Вы не можете прикреплять файлы к сообщениям
Вы не можете скачивать файлы

!ВНИМАНИЕ!
Сайт не предоставляет электронные версии произведений, а занимается лишь коллекционированием и каталогизацией ссылок, присылаемых и публикуемых на форуме нашими читателями. Если вы являетесь правообладателем какого-либо представленного материала и не желаете, чтобы ссылка на него находилась в нашем каталоге, свяжитесь с нами, и мы незамедлительно удалим ее. Файлы для обмена на трекере предоставлены пользователями сайта, и администрация не несет ответственности за их содержание. Просьба не заливать файлы, защищенные авторскими правами, а также файлы нелегального содержания!