[ Сегодня идет свободное скачивание без начисления Download ]


Статистика раздачи
Нет
 
   
 
Top  
 
 
-Муж двух жен / Run for Your Wife-«Две жены, и одна большая проблема»- Русское название: Муж двух жен
Оригинальное название: Run for Your Wife
Год выпуска: 2012
Производство: Великобритания
Жанр: Комедия
Перевод: Профессиональный (многоголосый закадровый) [Лицензия]
Субтитры: Нет
Дата мировой премьеры: 19 мая 2012
Дата выхода DVD релиза: 27 февраля 2014, «Вольга»
Режиссер: Рэй Куни, Джон Лутон
Продюсер: Грэхэм Фаулер, Вики Мишель, Джеймс Симпсон
Актеры: Дэнни Дайер, Дениз Ван Оутен, Сара Хардинг, Нил Мориссей, Келли Ширли, Кристофер Биггинс, Лайонел Блэр, Николя Ле Прево, Бен Картрайт, Дерек Гриффитс...
Описание фильма:
Жизнь таксиста Джона Смита удалась! Он — самый счастливый человек на земле и перспективы на будущее у него самые радужные. Все меняется в одночасье, когда при защите бездомной женщины от хулиганов его избивают. Джон не приходит вечером домой, и его жена Стефани обращается в полицию. Проблема в том, что одновременно в полицию обращается. .. его другая жена Мишель! Теперь Джону нужно приложить все усилия, чтобы полиция не узнала о его двоеженстве. Но есть задача и посложнее: не дать женам понять, что муж у них — один на двоих.

Продолжительность: 01:29:48
Качество видео: DVD5
Видеокодек: MPEG-2
Битрейт видео: ~5948 kbps
Размер кадра: 720х576@1024x576
Аудио1: (Dolby AC3, 6 ch) 256 kbps Русский
Аудио2: (Dolby AC3, 6 ch) 256 kbps Английский
Доп.материалы: Нет

DVDInfo

Title: Muzh.dvuh.zhen.2012.nnm.DVD5
Size: 4.28 Gb ( 4 483 492,00 KBytes ) - DVD-5
Enabled regions: 1, 2, 3, 4, 5, 6, 7, 8
VTS_01 :
Play Length: 00:00:10
Video: PAL 16:9 (720x576) VBR, Auto Pan&Scan, Auto Letterboxed
VTS_02 :
Play Length: 00:00:06
Video: PAL 16:9 (720x576) VBR, Auto Pan&Scan, Auto Letterboxed
VTS_03 :
Play Length: 01:29:48
Video: PAL 16:9 (720x576) VBR, Auto Pan&Scan, Auto Letterboxed
Audio:
Not specified (Dolby AC3, 6 ch)
Not specified (Dolby AC3, 6 ch)
VTS_04 :
Play Length: 00:00:05
Video: PAL 16:9 (720x576) VBR, Auto Pan&Scan, Auto Letterboxed
Audio:
Not specified (Dolby AC3, 6 ch)
Not specified (Dolby AC3, 6 ch)

MediaInfo

Общее
Полное имя : D:\ТМП\1\Muzh.dvuh.zhen.2012.nnm.DVD5\VIDEO_TS\VTS_03_2.VOB
Формат : MPEG-PS
Размер файла : 1024 Мбайт
Продолжительность : 21 м.
Режим общего битрейта : Переменный
Общий поток : 6591 Кбит/сек
Видео
Идентификатор : 224 (0xE0)
Формат : MPEG Video
Версия формата : Version 2
Профиль формата : Main@Main
Параметр BVOP формата : Да
Параметр матрицы формата : Выборочная
Продолжительность : 21 м.
Вид битрейта : Переменный
Битрейт : 5948 Кбит/сек
Максимальный битрейт : 9000 Кбит/сек
Ширина : 720 пикселей
Высота : 576 пикселей
Соотношение сторон : 16:9
Частота кадров : 25,000 кадров/сек
Стандарт вещания : PAL
Цветовое пространство : YUV
Субдискретизация насыщенности : 4:2:0
Битовая глубина : 8 бит
Тип развёртки : Чересстрочная
Порядок развёртки : Верхнее поле первое
Метод сжатия : С потерями
Бит/(Пиксели*Кадры) : 0.574
Размер потока : 924 Мбайт (90%)
Аудио #1
Идентификатор : 189 (0xBD)-128 (0x80)
Формат : AC-3
Формат/Информация : Audio Coding 3
Расширение режима : CM (complete main)
Режим смешивания : DVD-Video
Продолжительность : 21 м.
Вид битрейта : Постоянный
Битрейт : 256 Кбит/сек
Каналы : 6 каналов
Расположение каналов : Front: L C R, Side: L R, LFE
Частота : 48,0 КГц
Битовая глубина : 16 бит
Метод сжатия : С потерями
Задержка видео : -736 мс.
Размер потока : 39,8 Мбайт (4%)
Аудио #2
Идентификатор : 189 (0xBD)-129 (0x81)
Формат : AC-3
Формат/Информация : Audio Coding 3
Расширение режима : CM (complete main)
Режим смешивания : DVD-Video
Продолжительность : 21 м.
Вид битрейта : Постоянный
Битрейт : 256 Кбит/сек
Каналы : 6 каналов
Расположение каналов : Front: L C R, Side: L R, LFE
Частота : 48,0 КГц
Битовая глубина : 16 бит
Метод сжатия : С потерями
Задержка видео : -736 мс.
Размер потока : 39,8 Мбайт (4%)
Меню

Скриншоты меню

Скриншоты:

[Цитировать]



Показать сообщения:    

Текущее время: 10-Дек 11:58

Часовой пояс: UTC + 3


Вы не можете начинать темы
Вы не можете отвечать на сообщения
Вы не можете редактировать свои сообщения
Вы не можете удалять свои сообщения
Вы не можете голосовать в опросах
Вы не можете прикреплять файлы к сообщениям
Вы не можете скачивать файлы

!ВНИМАНИЕ!
Сайт не предоставляет электронные версии произведений, а занимается лишь коллекционированием и каталогизацией ссылок, присылаемых и публикуемых на форуме нашими читателями. Если вы являетесь правообладателем какого-либо представленного материала и не желаете, чтобы ссылка на него находилась в нашем каталоге, свяжитесь с нами, и мы незамедлительно удалим ее. Файлы для обмена на трекере предоставлены пользователями сайта, и администрация не несет ответственности за их содержание. Просьба не заливать файлы, защищенные авторскими правами, а также файлы нелегального содержания!