[ Сегодня идет свободное скачивание без начисления Download ]


Статистика раздачи
Нет
 
   
 
Top  
 
 
-Полной грудью / Breathe In - Год выпуска: 2013
Производство: США, Indian Paintbrush, Super Crispy Entertainment
Жанр: Драма, Мелодрама
Перевод: Одноголосый закадровый, любительский [datynet]
Субтитры: Отсутствуют
Дата мировой премьеры: 19 января 2013
Режиссер: Дрэйк Доремус
Актеры: Гай Пирс, Фелисити Джонс, Эми Райан, Маккензи Дэвис, Мэттью Даддарио, Александра Уэнтуорт
Описание фильма:
Когда иностранная студентка по обмену прибывает в маленький городок на севере штата Нью-Йорк, она навсегда меняет взаимоотношения в принявшей ее семье, а также жизни членов этой семьи.

Продолжительность: 01:37:14
Качество видео: BDRip
Видеокодек: MPEG-4 AVC/H.264
Битрейт видео: ~7 947 Кбит/с
Размер кадра: 1920x808
Аудио 1: Русский (MP3, 2 ch, 192 Кбит/с)
Аудио 2: Английский (DTS, 6 ch, 1509 Кбит/с)-

MediaInfo:

General
Complete name : O:\Breathe In.2013.BDRip.1080p.mkv
Format : Matroska
File size : 6.69 GiB
Duration : 1h 37mn
Overall bit rate : 9 845 Kbps
Encoded date : UTC 2014-02-28 13:45:02
Writing application : mkvmerge v6.7.0 ('Back to the Ground') 32bit built on Jan 8 2014 15:03:17
Writing library : libebml v1.3.0 + libmatroska v1.4.1
Video
ID : 1
Format : AVC
Format/Info : Advanced Video Codec
Format profile : High@L4.1
Format settings, CABAC : Yes
Format settings, ReFrames : 5 frames
Muxing mode : Container profile=Unknown@4.1
Codec ID : V_MPEG4/ISO/AVC
Duration : 1h 37mn
Bit rate : 7 947 Kbps
Nominal bit rate : 8 146 Kbps
Width : 1 920 pixels
Height : 808 pixels
Display aspect ratio : 2.35:1
Frame rate : 23.976 fps
Resolution : 8 bits
Colorimetry : 4:2:0
Scan type : Progressive
Bits/(Pixel*Frame) : 0.214
Stream size : 5.39 GiB (81%)
Writing library : x264 core 138 r2358 9e941d1
Encoding settings : cabac=1 / ref=5 / deblock=1:-3:-3 / analyse=0x3:0x113 / me=umh / subme=8 / psy=1 / psy_rd=1.00:0.00 / mixed_ref=1 / me_range=16 / chroma_me=1 / trellis=1 / 8x8dct=1 / cqm=0 / deadzone=21,11 / fast_pskip=1 / chroma_qp_offset=-2 / threads=12 / lookahead_threads=2 / sliced_threads=0 / nr=0 / decimate=1 / interlaced=0 / bluray_compat=0 / constrained_intra=0 / bframes=3 / b_pyramid=2 / b_adapt=2 / b_bias=0 / direct=3 / weightb=1 / open_gop=0 / weightp=2 / keyint=240 / keyint_min=24 / scenecut=40 / intra_refresh=0 / rc_lookahead=50 / rc=2pass / mbtree=1 / bitrate=8146 / ratetol=1.0 / qcomp=0.60 / qpmin=0 / qpmax=69 / qpstep=4 / cplxblur=20.0 / qblur=0.5 / ip_ratio=1.40 / aq=1:1.00
Audio #1
ID : 2
Format : MPEG Audio
Format version : Version 1
Format profile : Layer 3
Codec ID : A_MPEG/L3
Codec ID/Hint : MP3
Duration : 1h 37mn
Bit rate mode : Constant
Bit rate : 192 Kbps
Channel(s) : 2 channels
Sampling rate : 44.1 KHz
Stream size : 134 MiB (2%)
Language : Russian
Audio #2
ID : 3
Format : DTS
Format/Info : Digital Theater Systems
Codec ID : A_DTS
Duration : 1h 37mn
Bit rate mode : Constant
Bit rate : 1 510 Kbps
Channel(s) : 6 channels
Channel positions : Front: L C R, Surround: L R, LFE
Sampling rate : 48.0 KHz
Resolution : 24 bits
Stream size : 1.03 GiB (15%)
Menu
00:00:00.000 : en:00:00:00.000
00:08:00.188 : en:00:08:00.188
00:19:39.762 : en:00:19:39.762
00:29:30.310 : en:00:29:30.310
00:39:05.468 : en:00:39:05.468
00:47:19.336 : en:00:47:19.336
00:52:10.210 : en:00:52:10.210
01:02:17.275 : en:01:02:17.275
01:12:28.094 : en:01:12:28.094
01:20:47.259 : en:01:20:47.259
01:27:21.403 : en:01:27:21.403
01:31:45.917 : en:01:31:45.917
-Скриншоты:

[Цитировать]



Показать сообщения:    

Текущее время: 10-Дек 17:49

Часовой пояс: UTC + 3


Вы не можете начинать темы
Вы не можете отвечать на сообщения
Вы не можете редактировать свои сообщения
Вы не можете удалять свои сообщения
Вы не можете голосовать в опросах
Вы не можете прикреплять файлы к сообщениям
Вы не можете скачивать файлы

!ВНИМАНИЕ!
Сайт не предоставляет электронные версии произведений, а занимается лишь коллекционированием и каталогизацией ссылок, присылаемых и публикуемых на форуме нашими читателями. Если вы являетесь правообладателем какого-либо представленного материала и не желаете, чтобы ссылка на него находилась в нашем каталоге, свяжитесь с нами, и мы незамедлительно удалим ее. Файлы для обмена на трекере предоставлены пользователями сайта, и администрация не несет ответственности за их содержание. Просьба не заливать файлы, защищенные авторскими правами, а также файлы нелегального содержания!