[ Сегодня идет свободное скачивание без начисления Download ]


Статистика раздачи
Нет
 
   
 
Top  
 
 
-Зверюшки-добрюшки - Русское название: Зверюшки-добрюшки
Год выпуска: 2010
Страна: Россия
Выпущено: НО Фонд социально-культурных программ "Губерния"
Жанр: Детский, Рисованная анимация
Возраст: Для малышей
Вид субтитров: Отсутствуют
Режиссер: Максим Поляков, Светлана Ельчанинова
Сценарий: Геннадий Циферов
Продюсер: Александр Герасимов
Релиз на DVD: 19 января 2012
Описание фильма:
Анимационный сериал по мотивам сказкок Геннадия Цыферова. Главные герои сюжетов: Поросенок, Медвежонок, Лосенок, Лягушонок и Цыпленок познают мир и сталкиваются с вопросами, пытаясь понять, что такое красота, душа, природа, дружба, жалость, сострадание, веселье, забота о ближних, часть и целое. В кажущейся нелепой "детской логике" зверят, в их странных и наивных вопросах узнается малыш-зритель.

Продолжительность: 01:10:43
Качество видео: DVDRip
Видео: MPEG4, XviD, 704x400 (16/9), 25.000 fps, 1 482 Kbps (0.211 bit/pixel)
Аудио: AC-3, 48.0 KHz, 2 ch, 256 Kbps, CBR (Russian)

МедиаИнфо:

Видео
Идентификатор : 0
Формат : MPEG-4 Visual
Профиль формата : Advanced Simple@L5
Параметр BVOP формата : Нет
Параметр QPel формата : Нет
Параметр GMC формата : Без точки перехода
Параметр матрицы формата : Выборочная
Идентификатор кодека : XVID
Идентификатор кодека/Подсказка : XviD
Продолжительность : 1 ч. 10 м.
Битрейт : 1482 Кбит/сек
Ширина : 704 пикселя
Высота : 400 пикселей
Соотношение сторон : 16:9
Частота кадров : 25,000 кадров/сек
Цветовое пространство : YUV
Субдискретизация насыщенности : 4:2:0
Битовая глубина : 8 бит
Тип развёртки : Прогрессивная
Метод сжатия : С потерями
Бит/(Пиксели*Кадры) : 0.211
Размер потока : 747 Мбайт (85%)
Библиотека кодирования : XviD 1.2.1 (UTC 2008-12-04)
Аудио
Идентификатор : 1
Формат : AC-3
Формат/Информация : Audio Coding 3
Расширение режима : CM (complete main)
Идентификатор кодека : 2000
Продолжительность : 1 ч. 10 м.
Вид битрейта : Постоянный
Битрейт : 256 Кбит/сек
Каналы : 2 канала
Расположение каналов : Front: L R
Частота : 48,0 КГц
Битовая глубина : 16 бит
Метод сжатия : С потерями
Размер потока : 129 Мбайт (15%)
Выравнивание : Разделение по промежуткам
Продолжительность промежутка : 96 мс. (2,40 видеокадра)
Время предзагрузки промежутка : 96 мс.
Язык : Russian

Список серий (содержание релиза):

1. Знакомство
2. Половодье
3. Верба
4. Великое молчание
5. Спор
6. Шарманка медвежонка
7. Сказка для дождя
8. Разноцветное солнце
9. Вчерашний день
10. Ветер
11. Стук сердца
12. Кедры
13. Облачковое молочко
14. Четверг
15. Сад лосёнка
16. Конец лета
17. Смех и слёзы
18. Прекрасное несчастье
19. Добряк
20. Седце осени
21. Золотые рыбки
22. Грустная весна
23. Письма
24. Первое удивление
25. Голубая щука
Скриншоты:

[Цитировать]

NaName-Clyb .... на каждом скриншоте ??????

[Цитировать]



Показать сообщения:    

Текущее время: 11-Дек 07:10

Часовой пояс: UTC + 3


Вы не можете начинать темы
Вы не можете отвечать на сообщения
Вы не можете редактировать свои сообщения
Вы не можете удалять свои сообщения
Вы не можете голосовать в опросах
Вы не можете прикреплять файлы к сообщениям
Вы не можете скачивать файлы

!ВНИМАНИЕ!
Сайт не предоставляет электронные версии произведений, а занимается лишь коллекционированием и каталогизацией ссылок, присылаемых и публикуемых на форуме нашими читателями. Если вы являетесь правообладателем какого-либо представленного материала и не желаете, чтобы ссылка на него находилась в нашем каталоге, свяжитесь с нами, и мы незамедлительно удалим ее. Файлы для обмена на трекере предоставлены пользователями сайта, и администрация не несет ответственности за их содержание. Просьба не заливать файлы, защищенные авторскими правами, а также файлы нелегального содержания!