[ Сегодня идет свободное скачивание без начисления Download ]


Статистика раздачи
Нет
 
   
 
Top  
 
 
Я, Франкенштейн / I, Frankenstein
Страна: США, Австралия / Hopscotch Features, Lakeshore Entertainment, Sidney Kimmel Entertainment
Жанр: фэнтези, боевик, приключения
Год выпуска: 2014
Продолжительность: 1:33:03
Перевод: Профессиональный (дублированный) [лицензия]
Cубтитры: нет
Оригинальная аудиодорожка: нет
Режиссер: Стюарт Битти / Stuart Beattie
В ролях: Аарон Экхарт, Ивонн Страховски, Миранда Отто, Билл Найи, Джай Кортни, Сократис Отто, Аден Янг, Кэйтлин Стэйси, Махеш Джаду, Стив Музакис
Описание: Он — монстр. Он — двухсотлетний плод безумной фантазии своего создателя. Он — легенда. Мир, в котором он живет, населен древними горгульями и бессмертными демонами, которые сражаются за обладание человечеством. Величественные соборы скрывают огромные арсеналы, за дверьми научных лабораторий проводятся эксперименты по воскрешению мертвых. Война двух кланов могущественных существ достигает своего пика. И только он, Адам, монстр Франкенштейна, в силах ее остановить.

Сэмпл: http://multi-up.com/955628
Качество видео: HDRip
Формат видео: AVI
Видео: XviD, 640x272, 23.976 fps, 914 Kbps, 2.35:1, 0.219 Bits/(Pixel*Frame)
Аудио: MP3, 48.0 KHz, 2 ch, 128 Kbps

MediaInfo

General
Complete name : D:\Фильмы\Ya.Frankenshtejn.2014.D.HDRip.700MB.avi
Format : AVI
Format/Info : Audio Video Interleave
File size : 700 MiB
Duration : 1h 33mn
Overall bit rate : 1 051 Kbps
Writing application : VirtualDubMod 1.5.10.3 | www.virtualdub-fr.org || (build 2550/release)
Writing library : VirtualDubMod build 2550/release
Video
ID : 0
Format : MPEG-4 Visual
Format profile : Advanced [email protected]
Format settings, BVOP : 1
Format settings, QPel : No
Format settings, GMC : No warppoints
Format settings, Matrix : Default (MPEG)
Codec ID : XVID
Codec ID/Hint : XviD
Duration : 1h 33mn
Bit rate : 914 Kbps
Width : 640 pixels
Height : 272 pixels
Display aspect ratio : 2.35:1
Frame rate : 23.976 fps
Color space : YUV
Chroma subsampling : 4:2:0
Bit depth : 8 bits
Scan type : Progressive
Compression mode : Lossy
Bits/(Pixel*Frame) : 0.219
Stream size : 608 MiB (87%)
Writing library : XviD 73
Audio
ID : 1
Format : MPEG Audio
Format version : Version 1
Format profile : Layer 3
Codec ID : 55
Codec ID/Hint : MP3
Duration : 1h 33mn
Bit rate mode : Constant
Bit rate : 128 Kbps
Channel(s) : 2 channels
Sampling rate : 48.0 KHz
Compression mode : Lossy
Stream size : 85.2 MiB (12%)
Alignment : Aligned on interleaves
Interleave, duration : 42 ms (1.00 video frame)
Interleave, preload duration : 504 ms
Writing library : LAME3.99r
Encoding settings : -m s -V 4 -q 2 -lowpass 17 -b 128

Скриншот c названием фильма

Скриншоты

[Цитировать]

Топик был перенесен из форума Новинки кинопроката в форум Фэнтези
Henkok



Показать сообщения:    

Текущее время: 05-Дек 23:39

Часовой пояс: UTC + 3


Вы не можете начинать темы
Вы не можете отвечать на сообщения
Вы не можете редактировать свои сообщения
Вы не можете удалять свои сообщения
Вы не можете голосовать в опросах
Вы не можете прикреплять файлы к сообщениям
Вы не можете скачивать файлы

!ВНИМАНИЕ!
Сайт не предоставляет электронные версии произведений, а занимается лишь коллекционированием и каталогизацией ссылок, присылаемых и публикуемых на форуме нашими читателями. Если вы являетесь правообладателем какого-либо представленного материала и не желаете, чтобы ссылка на него находилась в нашем каталоге, свяжитесь с нами, и мы незамедлительно удалим ее. Файлы для обмена на трекере предоставлены пользователями сайта, и администрация не несет ответственности за их содержание. Просьба не заливать файлы, защищенные авторскими правами, а также файлы нелегального содержания!