[ Сегодня идет свободное скачивание без начисления Download ]


Статистика раздачи
Нет
 
   
 
Top  
 
 
-Август / August: Osage County (2013) BDRip«Misery loves family»- Год выпуска: 2013
Производство: США / Weinstein Company, The, Jean Doumanian Productions, Smokehouse Pictures
Жанр: Драма
Перевод: Дублированный [лицензия]
Субтитры: Вшитые отключаемые
Язык субтитров: Английский
Дата мировой премьеры: 9 сентября 2013
Дата российской премьеры: 30 января 2014, «Премиум Фильм»
Дата выхода DVD релиза: 6 марта 2014, «CP Дистрибуция»
Дата выхода Blu-Ray релиза: 6 марта 2014, «CP Дистрибуция»
Режиссер: Джон Уэллс
Продюсер: Джордж Клуни, Джин Думаньян, Грант Хеслов
Актеры: Мэрил Стрип, Джулия Робертс, Джулианна Николсон, Марго Мартиндейл, Эбигейл Бреслин, Юэн МакГрегор, Джульетт Льюис, Дермот Малруни, Сэм Шепард, Бенедикт Камбербэтч
Описание фильма:
В городе Талса, штат Оклахома, в отчий дом съезжаются члены большой семьи Уэстонов. Случилось несчастье и три дочери Барбара, Карен и Иви, их мать Виолетта, тетя Метти Фей, а также их мужья, дети и ухажеры собираются под одной крышей, пьют виски и выясняют отношения, обвиняя друг друга в предательствах, подавленных чувствах и изломанных судьбах. У каждого есть свой скелет в шкафу и все тайное, что обычно скрывается за фасадом благополучного дома, становится явным.

Продолжительность: 02:00:49
Качество видео: BDRip [720p] [profile-LQ]
Видеокодек: MPEG-4 AVC/H.264
Битрейт видео: ~4806 kbps
Размер кадра: 1280 x 538
Аудио 1: Русский, DTS 5.1, 1509 kbps, 48 kHz
Аудио 2: Русский, AC3 5.1, 448 kbps, 48 kHz
Аудио 3: Английский, DTS 5.1, 1509 kbps, 48 kHz

MediaInfo:

General
Unique ID                                : 223364312808693443258243564483325741849 (0xA80A66DFF0FD20BC850D9D3973304B19)
Complete name                            : E:\Фильмы\Август.2013.BDRip.720p.mkv
Format                                   : Matroska
Format version                           : Version 2
File size                                : 7.12 GiB
Duration                                 : 2h 0mn
Overall bit rate                         : 8 440 Kbps
Encoded date                             : UTC 2014-03-03 21:56:13
Writing application                      : mkvmerge v6.7.0 ('Back to the Ground') 64bit built on Jan  8 2014 15:10:52
Writing library                          : libebml v1.3.0 + libmatroska v1.4.1
Video
ID                                       : 1
Format                                   : AVC
Format/Info                              : Advanced Video Codec
Format profile                           : [url=mailto:High@L4.1]High@L4.1[/url]
Format settings, CABAC                   : Yes
Format settings, ReFrames                : 5 frames
Codec ID                                 : V_MPEG4/ISO/AVC
Duration                                 : 2h 0mn
Bit rate                                 : 4 806 Kbps
Width                                    : 1 280 pixels
Height                                   : 538 pixels
Display aspect ratio                     : 2.40:1
Frame rate mode                          : Constant
Frame rate                               : 24.000 fps
Color space                              : YUV
Chroma subsampling                       : 4:2:0
Bit depth                                : 8 bits
Scan type                                : Progressive
Bits/(Pixel*Frame)                       : 0.291
Stream size                              : 4.06 GiB (57%)
Language                                 : English
Default                                  : Yes
Forced                                   : No
Audio #1
ID                                       : 2
Format                                   : DTS
Format/Info                              : Digital Theater Systems
Mode                                     : 16
Format settings, Endianness              : Big
Codec ID                                 : A_DTS
Duration                                 : 2h 0mn
Bit rate mode                            : Constant
Bit rate                                 : 1 509 Kbps
Channel(s)                               : 6 channels
Channel positions                        : Front: L C R, Side: L R, LFE
Sampling rate                            : 48.0 KHz
Bit depth                                : 16 bits
Compression mode                         : Lossy
Stream size                              : 1.27 GiB (18%)
Language                                 : Russian
Default                                  : Yes
Forced                                   : No
Audio #2
ID                                       : 3
Format                                   : AC-3
Format/Info                              : Audio Coding 3
Mode extension                           : CM (complete main)
Format settings, Endianness              : Big
Codec ID                                 : A_AC3
Duration                                 : 2h 0mn
Bit rate mode                            : Constant
Bit rate                                 : 448 Kbps
Channel(s)                               : 6 channels
Channel positions                        : Front: L C R, Side: L R, LFE
Sampling rate                            : 48.0 KHz
Bit depth                                : 16 bits
Compression mode                         : Lossy
Stream size                              : 387 MiB (5%)
Language                                 : Russian
Default                                  : No
Forced                                   : No
Audio #3
ID                                       : 4
Format                                   : DTS
Format/Info                              : Digital Theater Systems
Mode                                     : 16
Format settings, Endianness              : Big
Codec ID                                 : A_DTS
Duration                                 : 2h 0mn
Bit rate mode                            : Constant
Bit rate                                 : 1 509 Kbps
Channel(s)                               : 6 channels
Channel positions                        : Front: L C R, Side: L R, LFE
Sampling rate                            : 48.0 KHz
Bit depth                                : 24 bits
Compression mode                         : Lossy
Stream size                              : 1.27 GiB (18%)
Language                                 : English
Default                                  : No
Forced                                   : No
Text
ID                                       : 5
Format                                   : UTF-8
Codec ID                                 : S_TEXT/UTF8
Codec ID/Info                            : UTF-8 Plain Text
Language                                 : English
Default                                  : No
Forced                                   : No
Menu
00:00:00.000                             : en:00:00:00.000
00:07:14.833                             : en:00:07:14.833
00:13:55.583                             : en:00:13:55.583
00:25:15.833                             : en:00:25:15.833
00:33:02.167                             : en:00:33:02.167
00:40:18.167                             : en:00:40:18.167
00:47:25.250                             : en:00:47:25.250
00:58:19.417                             : en:00:58:19.417
01:08:45.625                             : en:01:08:45.625
01:18:35.833                             : en:01:18:35.833
01:29:46.125                             : en:01:29:46.125
01:38:34.542                             : en:01:38:34.542
01:44:39.458                             : en:01:44:39.458
01:49:44.667                             : en:01:49:44.667
01:55:27.833                             : en:01:55:27.833
Скриншоты:

[Цитировать]



Показать сообщения:    

Текущее время: 11-Дек 05:18

Часовой пояс: UTC + 3


Вы не можете начинать темы
Вы не можете отвечать на сообщения
Вы не можете редактировать свои сообщения
Вы не можете удалять свои сообщения
Вы не можете голосовать в опросах
Вы не можете прикреплять файлы к сообщениям
Вы не можете скачивать файлы

!ВНИМАНИЕ!
Сайт не предоставляет электронные версии произведений, а занимается лишь коллекционированием и каталогизацией ссылок, присылаемых и публикуемых на форуме нашими читателями. Если вы являетесь правообладателем какого-либо представленного материала и не желаете, чтобы ссылка на него находилась в нашем каталоге, свяжитесь с нами, и мы незамедлительно удалим ее. Файлы для обмена на трекере предоставлены пользователями сайта, и администрация не несет ответственности за их содержание. Просьба не заливать файлы, защищенные авторскими правами, а также файлы нелегального содержания!