[ Сегодня идет свободное скачивание без начисления Download ]


Статистика раздачи
Нет
 
   
 
Top  
 
 
-Великая красота / La grande bellezza (2013) BDRemux- Год выпуска: 2013
Производство: Италия, Франция / Babe Film, Banca Popolare di Vicenza, Canal+ [fr], Cin?
Жанр: Драма, Комедия
Перевод: Многоголосый закадровый, профессиональный, Двуголосый закадровый
Субтитры: Вшитые отключаемые
Язык субтитров: Итальянский, Английский
Дата мировой премьеры: 21 мая 2013
Дата российской премьеры: 10 октября 2013, «A-One Films»
Дата выхода DVD релиза: 16 декабря 2013, «Новый Диск»
Режиссер: Паоло Соррентино
Продюсер: Франческа Чима, Никола Джулиано, Вивьен Асланян
Актеры: Тони Сервилло, Карло Вердоне, Сабрина Ферилли, Карло Буччироссо, Яя Форте, Памела Виллорези, Галатея Ранци, Франко Грациози, Джорджо Пазотти, Массимо Пополицио
Описание фильма:
Аристократки, нувориши, политики, преступники высокого полёта, журналисты, актёры, декаденствующие отпрыски благородных семейств, священники, художники, подлинные или мнимые интеллектуалы… Всех их поглощает современный Вавилон, пока они ткут канву непрочных взаимоотношений, предаваясь суетной жизни на фоне старинных дворцов, огромных вилл и великолепных террас. Все они здесь, и никто не предстаёт в выгодном свете.
Апатичный и разочарованный 65-летний Джеп Гамбарделла, писатель и журналист, не расстающийся со стаканом джина с тоником, наблюдает за этим парадом влиятельных, но пустых и потерянных людей, которые производят на него гнетущее впечатление. Головокружительная картина потери нравственных ориентиров разворачивается в атмосфере великолепного и безразличного римского лета. Вечный город подобен умершей диве.

Продолжительность: 02:20:41
Качество видео: BDRemux-Видеокодек: MPEG-4 AVC/H.264
Битрейт видео: ~31994 kbps, 1080p, 24 fps, 16:9, High Profile 4.1
Размер кадра: 1920 х 1080
Аудио 1: Русский, AC3 5.1, 448 kbps, 48 kHz (MVO, R5)
Аудио 2: Русский, AC3 2.0, 192 kbps, 48 kHz (DVO, НТВ+)
Аудио 3: Итальянский, DTS-HD MA 5.1, 2201 kbps, 48 kHz, 16 bit
Сэмпл: Скачать

Знаете ли вы, что...

• Фильм посвящен другу Паоло Соррентино — знаменитому итальянскому игроку в регби и журналисту Джузеппе Д’Авандзо (Giuseppe D`Avanzo), который умер во время съемок фильма.
• В своем интервью итальянской радиостанции Radio 2, Паоло Соррентино отметил, что в какой-то момент на стадии продакшна, он думал о том, чтобы назвать фильм «Аппарат человека» (L`Apparato Umano). Это название вымышленного романа, написанного главным героем фильма, которого сыграл Тони Сервилло.
• Представление, сыгранное персонажем Талии Концепт, — это очевидный намек на актрису Марину Абрамович.

Награды:

Оскар, 2014 год
Победитель (1):
Лучший фильм на иностранном языке — «Италия»
Золотой глобус, 2014 год
Победитель (1):
Лучший фильм на иностранном языке
Британская академия, 2014 год
Победитель (1):
Лучший фильм на иностранном языке
Гойя, 2014 год
Номинации (1):
Лучший европейский фильм
Каннский кинофестиваль, 2013 год
Номинации (1):
Золотая пальмовая ветвь
Европейская киноакадемия, 2013 год
Победитель (4):
Лучший фильм
Лучшая мужская роль (Тони Сервилло)
Лучший режиссер (Паоло Соррентино)
Лучший монтаж
Номинации (1):
Лучшая работа сценариста (Умберто Контарелло, Паоло Соррентино)

MediaInfo:

Общее
Уникальный идентификатор : 223848331593030315826900751444862922827 (0xA8679ED7E21012ECBF783DACBB81704B)
Полное имя : C:\Temp\La.Grande.Bellezza.2013.BDRemux.1080p.mkv
Формат : Matroska
Версия формата : Version 2
Размер файла : 34,2 Гбайт
Продолжительность : 2 ч. 20 м.
Режим общего битрейта : Переменный
Общий поток : 34,8 Мбит/сек
Дата кодирования : UTC 2014-03-05 08:28:02
Программа кодирования : mkvmerge v5.2.0 ('I can't explain') built on Dec 18 2011 18:12:03
Библиотека кодирования : libebml v1.2.3 + libmatroska v1.3.0
Видео
Идентификатор : 1
Формат : AVC
Формат/Информация : Advanced Video Codec
Профиль формата : High@L4.1
Параметр CABAC формата : Да
Параметр ReFrames формата : 4 кадра
Параметр GOP формата : M=3, N=18
Идентификатор кодека : V_MPEG4/ISO/AVC
Продолжительность : 2 ч. 20 м.
Вид битрейта : Переменный
Максимальный битрейт : 38,0 Мбит/сек
Ширина : 1920 пикселей
Высота : 1080 пикселей
Соотношение сторон : 16:9
Режим частоты кадров : Постоянный
Частота кадров : 24,000 кадра/сек
Стандарт вещания : NTSC
Цветовое пространство : YUV
Субдискретизация насыщенности : 4:2:0
Битовая глубина : 8 бит
Тип развёртки : Прогрессивная
Язык : English
Default : Да
Forced : Нет
Основные цвета : BT.709
Характеристики трансфера : BT.709
Коэффициенты матрицы : BT.709
Аудио #1
Идентификатор : 2
Формат : AC-3
Формат/Информация : Audio Coding 3
Расширение режима : CM (complete main)
Параметр Endianness формата : Big
Идентификатор кодека : A_AC3
Продолжительность : 2 ч. 20 м.
Вид битрейта : Постоянный
Битрейт : 448 Кбит/сек
Каналы : 6 каналов
Расположение каналов : Front: L C R, Side: L R, LFE
Частота : 48,0 КГц
Битовая глубина : 16 бит
Метод сжатия : С потерями
Размер потока : 451 Мбайт (1%)
Заголовок : MVO R5
Язык : Russian
Default : Да
Forced : Нет
Аудио #2
Идентификатор : 3
Формат : AC-3
Формат/Информация : Audio Coding 3
Расширение режима : CM (complete main)
Параметр Endianness формата : Big
Идентификатор кодека : A_AC3
Продолжительность : 2 ч. 20 м.
Вид битрейта : Постоянный
Битрейт : 192 Кбит/сек
Каналы : 2 канала
Расположение каналов : Front: L R
Частота : 48,0 КГц
Битовая глубина : 16 бит
Метод сжатия : С потерями
Размер потока : 193 Мбайт (1%)
Заголовок : DVO НТВ+
Язык : Russian
Default : Нет
Forced : Нет
Аудио #3
Идентификатор : 4
Формат : DTS
Формат/Информация : Digital Theater Systems
Профиль формата : MA / Core
Режим : 16
Параметр Endianness формата : Big
Идентификатор кодека : A_DTS
Продолжительность : 2 ч. 20 м.
Вид битрейта : Переменный
Битрейт : Неизвестно / 1509 Кбит/сек
Каналы : 6 каналов
Расположение каналов : Front: L C R, Side: L R, LFE
Частота : 48,0 КГц
Битовая глубина : 16 бит
Метод сжатия : Без потерь / Lossy
Заголовок : Original
Язык : Italian
Default : Нет
Forced : Нет
Текст #1
Идентификатор : 5
Формат : UTF-8
Идентификатор кодека : S_TEXT/UTF8
Идентификатор кодека/Информация : UTF-8 Plain Text
Язык : Italian
Default : Нет
Forced : Нет
Текст #2
Идентификатор : 6
Формат : UTF-8
Идентификатор кодека : S_TEXT/UTF8
Идентификатор кодека/Информация : UTF-8 Plain Text
Язык : English
Default : Нет
Forced : Нет
Меню
00:00:00.000 : en:Chapter 01
00:12:39.125 : en:Chapter 02
00:21:04.291 : en:Chapter 03
00:26:05.208 : en:Chapter 04
00:42:57.916 : en:Chapter 05
00:54:45.875 : en:Chapter 06
01:10:15.250 : en:Chapter 07
01:22:31.750 : en:Chapter 08
01:31:05.083 : en:Chapter 09
01:45:46.166 : en:Chapter 10
01:54:50.708 : en:Chapter 11
02:07:58.708 : en:Chapter 12
-Скриншоты:

[Цитировать]



Показать сообщения:    

Текущее время: 07-Дек 11:39

Часовой пояс: UTC + 3


Вы не можете начинать темы
Вы не можете отвечать на сообщения
Вы не можете редактировать свои сообщения
Вы не можете удалять свои сообщения
Вы не можете голосовать в опросах
Вы не можете прикреплять файлы к сообщениям
Вы не можете скачивать файлы

!ВНИМАНИЕ!
Сайт не предоставляет электронные версии произведений, а занимается лишь коллекционированием и каталогизацией ссылок, присылаемых и публикуемых на форуме нашими читателями. Если вы являетесь правообладателем какого-либо представленного материала и не желаете, чтобы ссылка на него находилась в нашем каталоге, свяжитесь с нами, и мы незамедлительно удалим ее. Файлы для обмена на трекере предоставлены пользователями сайта, и администрация не несет ответственности за их содержание. Просьба не заливать файлы, защищенные авторскими правами, а также файлы нелегального содержания!