[ Сегодня идет свободное скачивание без начисления Download ]


Статистика раздачи
Нет
 
   
 
Top  
 
 
-Август / August: Osage County - Год выпуска: 2013
Производство: США
Жанр: Драма
Перевод: Дублированный [лицензия]
Субтитры: Отсутствуют
Режиссер: Джон Уэллс / John Wells
Продюсер: Джордж Клуни, Селия Д. Костас, Джин Думаньян
Актеры: Мэрил Стрип, Джулия Робертс, Юэн МакГрегор, Эбигейл Бреслин, Крис Купер, Марго Мартиндейл, Джулианна Николсон, Бенедикт Камбербэтч, Дермот Малруни, Джульетт Льюис
Описание фильма:
В городе Талса, штат Оклахома, в отчий дом съезжаются члены большой семьи Уэстонов. Случилось несчастье и три дочери Барбара, Карен и Иви, их мать Виолетта, тетя Метти Фей, а также их мужья, дети и ухажеры собираются под одной крышей, пьют виски и выясняют отношения, обвиняя друг друга в предательствах, подавленных чувствах и изломанных судьбах. У каждого есть свой скелет в шкафу и все тайное, что обычно скрывается за фасадом благополучного дома, становится явным.

Дата мировой премьеры: 9 сентября 2013
Дата российской премьеры: 30 января 2014, «Премиум Фильм»
Дата выхода DVD релиза: 6 марта 2014, «CP Дистрибуция»
Дата выхода Blu-Ray релиза: 6 марта 2014, «CP Дистрибуция»
Рейтинг R - Детям до 17 лет обязательно присутствие родителей
Продолжительность: 02:00:49
Качество видео: BDRip
Видео: XviD, 720x304, ~1164 kbps, 0.222 bit/pixel
Аудио: AC3 5.1, 448 kbps, 48.0 KHz (Русский)

MediaInfo:

Формат                                   : AVI
Формат/Информация                        : Audio Video Interleave
Размер файла                             : 1,37 Гбайт
Продолжительность                        : 2 ч. 0 м.
Общий поток                              : 1621 Кбит/сек
Программа кодирования                    : VirtualDubMod 1.5.10.2 (build 2540/release)
Библиотека кодирования                   : VirtualDubMod build 2540/release
Видео
Идентификатор                            : 0
Формат                                   : MPEG-4 Visual
Профиль формата                          : Advanced Simple@L5
Параметр BVOP формата                    : 2
Параметр QPel формата                    : Нет
Параметр GMC формата                     : Без точки перехода
Параметр матрицы формата                 : Выборочная
Идентификатор кодека                     : XVID
Идентификатор кодека/Подсказка           : XviD
Продолжительность                        : 2 ч. 0 м.
Битрейт                                  : 1164 Кбит/сек
Ширина                                   : 720 пикселей
Высота                                   : 304 пикселя
Соотношение сторон                       : 2,35:1
Частота кадров                           : 24,000 кадра/сек
Цветовое пространство                    : YUV
Субдискретизация насыщенности            : 4:2:0
Битовая глубина                          : 8 бит
Тип развёртки                            : Прогрессивная
Метод сжатия                             : С потерями
Бит/(Пиксели*Кадры)                      : 0.222
Размер потока                            : 1006 Мбайт (72%)
Библиотека кодирования                   : XviD 1.2.1 (UTC 2008-12-04)
Аудио
Идентификатор                            : 1
Формат                                   : AC-3
Формат/Информация                        : Audio Coding 3
Расширение режима                        : CM (complete main)
Параметр Endianness формата              : Big
Идентификатор кодека                     : 2000
Продолжительность                        : 2 ч. 0 м.
Вид битрейта                             : Постоянный
Битрейт                                  : 448 Кбит/сек
Каналы                                   : 6 каналов
Расположение каналов                     : Front: L C R, Side: L R, LFE
Частота                                  : 48,0 КГц
Битовая глубина                          : 16 бит
Метод сжатия                             : С потерями
Размер потока                            : 387 Мбайт (28%)
Выравнивание                             : Разделение по промежуткам
Продолжительность промежутка             : 42  мс. (1,00 видеокадр)
Время предзагрузки промежутка            : 500  мс.

Рецензия:

Август — конец… лета
Среди современных фильмов последнее время тяжело найти что-то стоящее, как бы печально это ни звучало. Но этот фильм меня настолько впечатлил, что еще на долго останется в памяти. Он не относится к тем кинематографическим работам, которые можно посмотреть, чтобы расслабиться и развлечься. Его нужно именно понять и прочувствовать.
Решила посмотреть фильм из-за его номинаций на Оскар и звездного актерского состава, который говорит сам за себя. Мэрил Стрип, Джулия Робертс, Юэн МакГрэгор — по моему мнению, это звезды, которые могут «вытянуть» любой фильм. Об их актерском мастерстве можно говорить бесконечно, поэтому просто напишу, что их претензии на Оскар абсолютно оправданы.
Фильм затрагивает те проблемы, которые тем или иным образом присутствуют в жизни каждого из нас. Проблема «отцов и детей», расставания, ссоры с близкими людьми — те моменты, которые задевают за живое. Они заставляют задуматься о своей жизни и что-то в ней изменить. Лично мне после просмотра фильма очень захотелось позвонить маме и услышать ее голос.
Действие происходит в штате Оклахома, в доме, который отделен от цивилизации бесконечными прериями. Это очень символично: герои оказываются в своем маленьком, одиноком мире, где каждый друг другу очень дорог и в то же время ненавистен. Никто не может им помочь решить их многочисленные проблемы, которые все приумножаются по мере развития сюжета.
Смотреть этот фильм нужно с четким намерением узнать что-то новое о жизни, может быть научиться на чужих ошибках. Он довольно «тяжелый» и требует осознания и полного включения в переживания героев.
Я считаю, что фильм достоен того, что бы занять одну из лидирующих позиций в списке тех произведений кинематографа, которые каждый должен посмотреть в своей жизни.

Награды:

Оскар, 2014 год
Номинации (2):
» Лучшая женская роль (Мэрил Стрип)
» Лучшая женская роль второго плана (Джулия Робертс)
Золотой глобус, 2014 год
Номинации (2):
» Лучшая женская роль (комедия или мюзикл) (Мэрил Стрип)
» Лучшая женская роль второго плана (Джулия Робертс)
Британская академия, 2014 год
Номинации (1):
» Лучшая женская роль второго плана (Джулия Робертс)
Премия Гильдии актеров, 2014 год
Номинации (3):
» Лучшая женская роль (Мэрил Стрип)
» Лучшая женская роль второго плана (Джулия Робертс)
» Лучший актерский состав

[Цитировать]

Топик был перенесен из форума Новинки кинопроката в форум Драма
Henkok



Показать сообщения:    

Текущее время: 11-Дек 14:50

Часовой пояс: UTC + 3


Вы не можете начинать темы
Вы не можете отвечать на сообщения
Вы не можете редактировать свои сообщения
Вы не можете удалять свои сообщения
Вы не можете голосовать в опросах
Вы не можете прикреплять файлы к сообщениям
Вы не можете скачивать файлы

!ВНИМАНИЕ!
Сайт не предоставляет электронные версии произведений, а занимается лишь коллекционированием и каталогизацией ссылок, присылаемых и публикуемых на форуме нашими читателями. Если вы являетесь правообладателем какого-либо представленного материала и не желаете, чтобы ссылка на него находилась в нашем каталоге, свяжитесь с нами, и мы незамедлительно удалим ее. Файлы для обмена на трекере предоставлены пользователями сайта, и администрация не несет ответственности за их содержание. Просьба не заливать файлы, защищенные авторскими правами, а также файлы нелегального содержания!