[ Сегодня идет свободное скачивание без начисления Download ]


Статистика раздачи
Нет
 
   
 
Top  
 
 
-Вий «Не бойся...»- Год выпуска: 2013
Производство: Россия, Украина, Германия, Великобритания, Чехия, Rospofilm, Step by Step Film Production
Жанр: Фэнтези, Триллер, Приключения
Перевод: Не требуется (русский) Лицензия
Субтитры: Отсутствуют
Дата мировой премьеры: 30 января 2014
Дата российской премьеры: 30 января 2014, «UPI»
Дата украинской премьеры: 30 января 2014, «Ukrainian Film Distribution»
Дата выхода DVD / Blu-Ray релиза: 3 марта 2014, «Новый Диск»
Режиссер: Олег Степченко
Продюсер: Александр Куликов, Руслан Устинов, Алексей Петрухин
Актеры: Джейсон Флеминг, Алексей Чадов, Агния Дитковските, Андрей Смоляков, Игорь Жижикин, Олег Тактаров, Валерий Золотухин, Нина Русланова, Юрий Цурило, Александр Яковлев
Описание фильма:
Начало XVIII века. Картограф Джонатан Грин совершает научное путешествие из Европы на Восток. Проследовав через Трансильванию и преодолев Карпатские горы, он попадает в затерянную среди непроходимых лесов деревушку. Только воля случая и густой туман могли занести его в это проклятое место. Народ, живущий здесь, не похож ни на один доселе виданный путешественником. Эти люди, оградив себя от остального мира глубоким рвом, наивно верят, что смогут уберечься от нечисти, не понимая, что она уже давно поселилась в их душах и только ждёт случая, чтобы вырваться наружу. Даже в страшном сне учёный-материалист не предполагал, что здесь ему уготована встреча с верным слугой дьявола.

Продолжительность: 02:04:52
Качество видео: DVDRip
Видеокодек: Xvid
Битрейт видео: ~1896 Kbit/s
Размер кадра: 720 x 400
Аудиокодек: AC3 5.1
Битрейт аудио: 448 Kbit/s

MediaInfo

Общее
Полное имя                       : D:\Торренты\ФИЛЬМЫ торента\Вий.2014.DVDRip.avi
Формат                           : AVI
Формат/Информация                : Audio Video Interleave
Профиль формата                  : OpenDML
Размер файла                     : 2,06 Гбайт
Продолжительность                : 2 ч. 4 м.
Общий поток                      : 2356 Кбит/сек
Программа кодирования            : VirtualDubMod 1.5.10.3 (build 2550/release)
Библиотека кодирования           : VirtualDubMod build 2550/release
Видео
Идентификатор                    : 0
Формат                           : MPEG-4 Visual
Профиль формата                  : Advanced [email protected]
Параметр BVOP формата            : 2
Параметр QPel формата            : Нет
Параметр GMC формата             : Без точки перехода
Параметр матрицы формата         : Default (MPEG)
Идентификатор кодека             : XVID
Идентификатор кодека/Подсказка   : XviD
Продолжительность                : 2 ч. 4 м.
Битрейт                          : 1896 Кбит/сек
Ширина                           : 720 пикс.
Высота                           : 400 пикс.
Соотношение сторон               : 16:9
Частота кадров                   : 25,000 кадр/сек
Цветовое пространство            : YUV
Подвыборка цветности             : 4:2:0
Битовая глубина                  : 8 бит
Тип развёртки                    : Прогрессивная
Метод сжатия                     : С потерями
Бит/(Пиксели*Кадры)              : 0.263
Размер потока                    : 1,65 Гбайт (80%)
Библиотека кодирования           : XviD 1.2.1 (UTC 2008-12-04)
Аудио
Идентификатор                    : 1
Формат                           : AC-3
Формат/Информация                : Audio Coding 3
Расширение режима                : CM (complete main)
Идентификатор кодека             : 2000
Продолжительность                : 2 ч. 4 м.
Вид битрейта                     : Постоянный
Битрейт                          : 448 Кбит/сек
Каналы                           : 6 каналов
Расположение каналов             : Front: L C R, Side: L R, LFE
Частота                          : 48,0 КГц
Битовая глубина                  : 16 бит
Метод сжатия                     : С потерями
Размер потока                    : 400 Мбайт (19%)
Выравнивание                     : Разделение по промежуткам
Продолжительность промежутка     : 40  мс. (1,00 видеокадр)
Время предзагрузки промежутка    : 500 ms

Трейлер / Ролик

[youtube]http://www.youtube.com/v/5VZxD_h7vAM&fs=1[/youtube]

[Цитировать]

Топик был перенесен из форума Новинки кинопроката в форум Фэнтези
Henkok



Показать сообщения:    

Текущее время: 06-Дек 21:00

Часовой пояс: UTC + 3


Вы не можете начинать темы
Вы не можете отвечать на сообщения
Вы не можете редактировать свои сообщения
Вы не можете удалять свои сообщения
Вы не можете голосовать в опросах
Вы не можете прикреплять файлы к сообщениям
Вы не можете скачивать файлы

!ВНИМАНИЕ!
Сайт не предоставляет электронные версии произведений, а занимается лишь коллекционированием и каталогизацией ссылок, присылаемых и публикуемых на форуме нашими читателями. Если вы являетесь правообладателем какого-либо представленного материала и не желаете, чтобы ссылка на него находилась в нашем каталоге, свяжитесь с нами, и мы незамедлительно удалим ее. Файлы для обмена на трекере предоставлены пользователями сайта, и администрация не несет ответственности за их содержание. Просьба не заливать файлы, защищенные авторскими правами, а также файлы нелегального содержания!