[ Сегодня идет свободное скачивание без начисления Download ]


Статистика раздачи
Нет
 
   
 
Top  
 
 
-Голодные игры: И вспыхнет пламя / The Hunger Games: Catching Fire (2013) BDRemux
«Помни, кто твой настоящий враг»
- Год выпуска: 2013
Производство: США / Color Force
Жанр: Фантастика, боевик, триллер, приключения
Перевод: Дублированный [лицензия]
Субтитры: Вшитые отключаемые
Язык субтитров: Русский, английский (full, SDH)
Режиссер: Френсис Лоуренс / Francis Lawrence
Продюсер: Сьюзен Коллинз, Джозеф Дрэйк, Нина Джейкобсон
Актеры: Дженнифер Лоуренс, Джош Хатчерсон, Сэм Клафлин, Джена Мэлоун, Вуди Харрельсон, Элизабет Бэнкс, Лиам Хемсворт, Дональд Сазерленд, Филип Сеймур Хоффман, Стэнли Туччи
Описание фильма:
Сумев выжить на безжалостных Голодных играх, Китнисс Эвердин и Пит Мелларк возвращаются домой. Но теперь они в еще большей опасности, так как своим отказом играть по правилам на Арене бросили вызов Капитолию. По традиции следующие, юбилейные, Голодные игры должны стать особенными, и в этот раз в них участвуют только победители прошлых лет. Китнисс и Пит вынуждены вновь выйти на Арену, где будут соперничать с сильнейшими. Правила игры меняются. Арена еще опасней, масштаб еще больше, ставки еще выше!

Дата мировой премьеры: 11 ноября 2013
Дата российской премьеры: 21 ноября 2013, «Вольга»
Дата выхода DVD релиза: 14 марта 2014, «Вольга»
Дата выхода Blu-Ray релиза: 14 марта 2014, «Вольга»
Рейтинг MPAA: PG-13
Возраст: 12+
Продолжительность: 02:26:14
Качество видео: BDRemux [USA Transfer]
Видео: MPEG4_AVC/H.264, 1920x1080, ~20504 kbps, 23.976 fps, 0.477 bit/pixel
Аудио 1: DTS-HD MA 5.1, 2022 kbps, 48 kHz [Русский - дублированный «Blu-Ray RUS»]
Аудио 2: AC3 5.1, 640 kbps, 48 kHz [Русский - дублированный «Blu-Ray RUS»]
Аудио 3: DTS-HD MA 7.1, 5019 kbps, 48 kHz [Английский - оригинал]
Аудио 4: AC3 2.0, 224 kbps, 48 kHz [Английский - комментарий]

Отчёт MediaInfo

Полное имя : D:\Голодные.игры.И.вспыхнет.пламя-The.Hunger.Games.Catching.Fire.(2013).BDRemux.[1080p].mkv
Формат : Matroska
Версия формата : Version 2
Размер файла : 28,9 Гбайт
Продолжительность : 2 ч. 26 м.
Режим общего битрейта : Переменный
Общий поток : 28,3 Мбит/сек
Название фильма : The Hunger Games: Catching Fire (2013) / Lelya_K for NNM-Club
Дата кодирования : UTC 2014-03-08 20:06:57
Программа кодирования : mkvmerge v5.7.0 ('The Whirlwind') built on Aug 7 2012 14:11:40
Библиотека кодирования : libebml v1.2.3 + libmatroska v1.3.0
Attachment : Yes
Видео
Идентификатор : 1
Формат : AVC
Формат/Информация : Advanced Video Codec
Профиль формата : High@L4.1
Параметр CABAC формата : Да
Параметр ReFrames формата : 4 кадра
Идентификатор кодека : V_MPEG4/ISO/AVC
Продолжительность : 2 ч. 26 м.
Вид битрейта : Переменный
Битрейт : 23,7 Мбит/сек
Максимальный битрейт : 37,0 Мбит/сек
Ширина : 1920 пикселей
Высота : 1080 пикселей
Соотношение сторон : 16:9
Режим частоты кадров : Постоянный
Частота кадров : 23,976 кадра/сек
Цветовое пространство : YUV
Субдискретизация насыщенности : 4:2:0
Битовая глубина : 8 бит
Тип развёртки : Прогрессивная
Бит/(Пиксели*Кадры) : 0.477
Размер потока : 24,2 Гбайт (84%)
Заголовок : Голодные.игры.И.вспыхнет.пламя-The.Hunger.Games.Catching.Fire.(2013).BDRemux.[1080p]
Язык : English
Default : Да
Forced : Нет
Аудио #1
Идентификатор : 2
Формат : DTS
Формат/Информация : Digital Theater Systems
Профиль формата : MA / Core
Идентификатор кодека : A_DTS
Продолжительность : 2 ч. 26 м.
Вид битрейта : Переменный
Битрейт : 1561 Кбит/сек / 1510 Кбит/сек
Каналы : 6 каналов
Расположение каналов : Front: L C R, Side: L R, LFE
Частота : 48,0 КГц
Битовая глубина : 16 бит
Метод сжатия : Без потерь / Lossy
Заголовок : DTS-HD MA 5.1 / 2022 kbps / Dub (Blu-Ray RUS)
Язык : Russian
Default : Да
Forced : Нет
Аудио #2
Идентификатор : 3
Формат : AC-3
Формат/Информация : Audio Coding 3
Расширение режима : CM (complete main)
Параметр Endianness формата : Big
Идентификатор кодека : A_AC3
Продолжительность : 2 ч. 26 м.
Вид битрейта : Постоянный
Битрейт : 640 Кбит/сек
Каналы : 6 каналов
Расположение каналов : Front: L C R, Side: L R, LFE
Частота : 48,0 КГц
Битовая глубина : 16 бит
Метод сжатия : С потерями
Размер потока : 669 Мбайт (2%)
Заголовок : AC3 5.1 / 640 kbps / Dub (Blu-Ray RUS)
Язык : Russian
Default : Нет
Forced : Нет
Аудио #3
Идентификатор : 4
Формат : DTS
Формат/Информация : Digital Theater Systems
Профиль формата : MA / Core
Идентификатор кодека : A_DTS
Продолжительность : 2 ч. 26 м.
Вид битрейта : Переменный
Битрейт : 1606 Кбит/сек / 1510 Кбит/сек
Каналы : 8 каналов / 6 каналов
Расположение каналов : Front: L C R, Side: L R, Back: L R, LFE / Front: L C R, Side: L R, LFE
Частота : 48,0 КГц
Битовая глубина : 24 бит
Метод сжатия : Без потерь / Lossy
Заголовок : DTS-HD MA 7.1 / 5019 kbps / Original
Язык : English
Default : Нет
Forced : Нет
Аудио #4
Идентификатор : 5
Формат : AC-3
Формат/Информация : Audio Coding 3
Профиль формата : Dolby Digital
Расширение режима : CM (complete main)
Параметр Endianness формата : Big
Идентификатор кодека : A_AC3
Продолжительность : 2 ч. 26 м.
Вид битрейта : Постоянный
Битрейт : 224 Кбит/сек
Каналы : 2 канала
Расположение каналов : Front: L R
Частота : 48,0 КГц
Битовая глубина : 16 бит
Метод сжатия : С потерями
Размер потока : 234 Мбайт (1%)
Заголовок : AC3 2.0 / 224 kbps / Commentary with Director Francis Lawrence and Producer Nina Jacobson
Язык : English
Default : Нет
Forced : Нет
Текст #1
Идентификатор : 6
Формат : UTF-8
Идентификатор кодека : S_TEXT/UTF8
Идентификатор кодека/Информация : UTF-8 Plain Text
Заголовок : Full
Язык : Russian
Default : Нет
Forced : Нет
Текст #2
Идентификатор : 7
Формат : UTF-8
Идентификатор кодека : S_TEXT/UTF8
Идентификатор кодека/Информация : UTF-8 Plain Text
Заголовок : Full
Язык : English
Default : Нет
Forced : Нет
Текст #3
Идентификатор : 8
Формат : UTF-8
Идентификатор кодека : S_TEXT/UTF8
Идентификатор кодека/Информация : UTF-8 Plain Text
Заголовок : SDH
Язык : English
Default : Нет
Forced : Нет
Меню
00:00:00.000 : en:Chapter 1
00:11:24.681 : en:Chapter 2
00:16:48.047 : en:Chapter 3
00:25:38.077 : en:Chapter 4
00:35:51.648 : en:Chapter 5
00:44:22.576 : en:Chapter 6
00:52:12.920 : en:Chapter 7
01:01:11.375 : en:Chapter 8
01:08:12.210 : en:Chapter 9
01:16:48.936 : en:Chapter 10
01:22:39.662 : en:Chapter 11
01:29:21.729 : en:Chapter 12
01:40:43.912 : en:Chapter 13
01:50:47.764 : en:Chapter 14
02:02:46.984 : en:Chapter 15
02:09:58.957 : en:Chapter 16
Скриншоты:

[Цитировать]



Показать сообщения:    

Текущее время: 09-Дек 12:47

Часовой пояс: UTC + 3


Вы не можете начинать темы
Вы не можете отвечать на сообщения
Вы не можете редактировать свои сообщения
Вы не можете удалять свои сообщения
Вы не можете голосовать в опросах
Вы не можете прикреплять файлы к сообщениям
Вы не можете скачивать файлы

!ВНИМАНИЕ!
Сайт не предоставляет электронные версии произведений, а занимается лишь коллекционированием и каталогизацией ссылок, присылаемых и публикуемых на форуме нашими читателями. Если вы являетесь правообладателем какого-либо представленного материала и не желаете, чтобы ссылка на него находилась в нашем каталоге, свяжитесь с нами, и мы незамедлительно удалим ее. Файлы для обмена на трекере предоставлены пользователями сайта, и администрация не несет ответственности за их содержание. Просьба не заливать файлы, защищенные авторскими правами, а также файлы нелегального содержания!